<?xml version="1.0" standalone="no"?>
<!DOCTYPE svg PUBLIC "-//W3C//DTD SVG 1.1//EN" "http://www.w3.org/Graphics/SVG/1.1/DTD/svg11.dtd" >
<svg xmlns="http://www.w3.org/2000/svg" xmlns:xlink="http://www.w3.org/1999/xlink" version="1.1">
<metadata>
Created by FontForge 20201107 at Tue Dec  9 17:47:00 2003
 By Jimmy Wärting
Copyright 1990-2003 Bitstream Inc. All rights reserved.
</metadata>
<defs>
<font id="FuturaBT-Medium" horiz-adv-x="1024" >
  <font-face 
    font-family="Futura Md BT"
    font-weight="400"
    font-stretch="normal"
    units-per-em="2048"
    panose-1="2 11 6 2 2 2 4 2 3 3"
    ascent="1556"
    descent="-492"
    x-height="948"
    cap-height="1464"
    bbox="-342 -483 2337 1972"
    underline-thickness="145"
    underline-position="-295"
    unicode-range="U+0020-F002"
  />
<missing-glyph horiz-adv-x="1229" 
d="M102 -362v1806h1024v-1806h-1024zM217 -248h795v1577h-795v-1577z" />
    <glyph glyph-name=".notdef" horiz-adv-x="1229" 
d="M102 -362v1806h1024v-1806h-1024zM217 -248h795v1577h-795v-1577z" />
    <glyph glyph-name=".null" horiz-adv-x="0" 
 />
    <glyph glyph-name="nonmarkingreturn" horiz-adv-x="618" 
 />
    <glyph glyph-name="space" unicode=" " horiz-adv-x="618" 
 />
    <glyph glyph-name="exclam" unicode="!" horiz-adv-x="674" 
d="M223 1497h228v-1161h-228v1161zM205 92q0 54 38.5 92.5t92.5 38.5q55 0 93 -38t38 -93q0 -54 -38 -92.5t-93 -38.5t-93 38.5t-38 92.5z" />
    <glyph glyph-name="quotedbl" unicode="&#x22;" horiz-adv-x="643" 
d="M395 1436h164v-557h-164v557zM86 1436h164v-557h-164v557z" />
    <glyph glyph-name="numbersign" unicode="#" horiz-adv-x="1575" 
d="M709 852l-91 -254h256l91 254h-256zM735 1460h191l-154 -436h250l156 436h190l-154 -436h291l-59 -172h-293l-90 -252h309l-61 -172h-307l-156 -434h-191l156 434h-252l-158 -434h-190l156 434h-299l61 172h297l90 252h-315l61 172h316z" />
    <glyph glyph-name="dollar" unicode="$" horiz-adv-x="1237" 
d="M137 317l189 84q24 -86 84 -133.5t157 -58.5v457q-205 84 -298 184.5t-93 236.5q0 159 104 262t287 126v112h105v-114q143 -13 235 -71t131 -161l-184 -92q-34 53 -78 83.5t-104 41.5v-402q245 -115 329 -209t84 -233q0 -181 -107.5 -292.5t-305.5 -135.5v-170h-105v166
q-178 12 -286 92t-144 227zM567 1268q-73 -22 -106 -61.5t-33 -104.5q0 -62 33 -108t106 -85v359zM672 215q82 21 125 72.5t43 128.5q0 66 -40 115t-128 92v-408z" />
    <glyph glyph-name="percent" unicode="%" horiz-adv-x="1622" 
d="M1237 80q75 0 112 67t37 201q0 129 -37.5 197.5t-107.5 68.5q-74 0 -111.5 -67.5t-37.5 -200.5q0 -128 37.5 -197t107.5 -69zM913 348q0 182 87 283.5t241 101.5q155 0 240.5 -100.5t85.5 -284.5q0 -182 -87 -284.5t-241 -102.5t-240 102t-86 285zM57 1094q0 181 87 283
t241 102q155 0 240.5 -100.5t85.5 -284.5q0 -183 -86 -284t-240 -101q-155 0 -241.5 101t-86.5 284zM383 825q74 0 110.5 67t36.5 202q0 130 -37 199t-106 69q-74 0 -111.5 -68.5t-37.5 -201.5q0 -129 37.5 -198t107.5 -69zM455 -39h-138l854 1518h138z" />
    <glyph glyph-name="ampersand" unicode="&#x26;" horiz-adv-x="1374" 
d="M571 934l54 31q56 33 84 76.5t28 97.5q0 62 -38 101.5t-99 39.5q-67 0 -108 -40t-41 -103q0 -31 11.5 -60t35.5 -55zM834 295l-320 369l-37 -25q-105 -68 -146.5 -124.5t-41.5 -125.5q0 -97 68 -164t169 -67q75 0 151.5 34t156.5 103zM1087 0l-118 139
q-104 -89 -213.5 -131.5t-239.5 -42.5q-202 0 -328.5 117t-126.5 301q0 125 78 230.5t248 211.5l-59 64q-49 53 -75 116t-26 128q0 144 105.5 236.5t271.5 92.5q165 0 262 -83.5t97 -225.5q0 -107 -68 -195.5t-217 -175.5l305 -354q44 44 90 100t98 129l140 -149
q-40 -64 -89 -121.5t-106 -107.5l246 -279h-275z" />
    <glyph glyph-name="quotesingle" unicode="'" horiz-adv-x="334" 
d="M86 1436h164v-557h-164v557z" />
    <glyph glyph-name="parenleft" unicode="(" horiz-adv-x="621" 
d="M406 -446q-119 220 -178.5 466t-59.5 519q0 287 59 533t179 460l163 -49q-107 -212 -159 -442.5t-52 -499.5q0 -282 51.5 -510t159.5 -424z" />
    <glyph glyph-name="parenright" unicode=")" horiz-adv-x="621" 
d="M207 -446l-162 53q108 196 159.5 424t51.5 510q0 269 -51.5 499.5t-159.5 442.5l162 49q120 -214 178.5 -460t58.5 -533q0 -273 -59 -519t-178 -466z" />
    <glyph glyph-name="asterisk" unicode="*" horiz-adv-x="901" 
d="M178 868l-72 121l226 115l-226 133l72 123l211 -135l-12 239h145l-14 -241l215 137l72 -123l-232 -127l232 -121l-76 -121l-211 140l14 -246h-145l10 244z" />
    <glyph glyph-name="plus" unicode="+" horiz-adv-x="1706" 
d="M768 1221h170v-527h514v-166h-514v-528h-170v528h-514v166h514v527z" />
    <glyph glyph-name="comma" unicode="," horiz-adv-x="618" 
d="M309 248l195 -72l-260 -536l-129 51z" />
    <glyph glyph-name="hyphen" unicode="-" horiz-adv-x="829" 
d="M147 571h535v-200h-535v200z" />
    <glyph glyph-name="period" unicode="." horiz-adv-x="618" 
d="M178 111q0 55 38 94t93 39t93 -39t38 -94q0 -54 -38 -91.5t-93 -37.5t-93 37.5t-38 91.5z" />
    <glyph glyph-name="slash" unicode="/" horiz-adv-x="887" 
d="M717 1497h170l-717 -1687h-170z" />
    <glyph glyph-name="zero" unicode="0" horiz-adv-x="1237" 
d="M1145 705q0 -349 -140.5 -546.5t-386.5 -197.5q-249 0 -387.5 199.5t-138.5 560.5q0 358 140 558t389 200q252 0 388 -200.5t136 -573.5zM614 166q146 0 219.5 139.5t73.5 417.5q0 270 -72.5 411.5t-211.5 141.5q-145 0 -219 -141t-74 -416q0 -267 73.5 -410t210.5 -143z
" />
    <glyph glyph-name="one" unicode="1" horiz-adv-x="1237" 
d="M541 0v1262h-303l92 188h428v-1450h-217z" />
    <glyph glyph-name="two" unicode="2" horiz-adv-x="1237" 
d="M1024 190v-190h-981l547 655q102 123 149 216t47 169q0 109 -64.5 171.5t-176.5 62.5q-100 0 -165 -62.5t-73 -164.5h-229q0 197 132 314.5t355 117.5q212 0 334.5 -109t122.5 -297q0 -134 -70.5 -270.5t-298.5 -396.5l-186 -216h557z" />
    <glyph glyph-name="three" unicode="3" horiz-adv-x="1237" 
d="M94 391h228v-12q0 -101 69 -161t187 -60q133 0 205.5 66.5t72.5 191.5q0 131 -74.5 197.5t-222.5 66.5q-7 0 -22 -1t-23 -1v192q7 0 21.5 -1t21.5 -1q130 0 196 54.5t66 160.5q0 94 -59.5 149.5t-159.5 55.5q-107 0 -167.5 -51.5t-63.5 -144.5h-215q10 187 127 287
t325 100q201 0 318.5 -105t117.5 -284q0 -135 -66.5 -221.5t-184.5 -104.5q139 -25 211.5 -122t72.5 -257q0 -195 -136.5 -309.5t-369.5 -114.5q-211 0 -340 116.5t-135 313.5z" />
    <glyph glyph-name="four" unicode="4" horiz-adv-x="1237" 
d="M735 989l-373 -526h367v381q0 30 1.5 67t4.5 78zM729 0v297h-702l852 1182h67v-1016h178v-166h-178v-297h-217z" />
    <glyph glyph-name="five" unicode="5" horiz-adv-x="1237" 
d="M236 350q51 -94 131 -144t178 -50q145 0 235 92.5t90 243.5q0 145 -94.5 236t-247.5 91q-92 0 -170.5 -31.5t-138.5 -93.5l-59 13l182 743h692v-193h-549l-86 -323q60 25 116 37t112 12q209 0 340 -134t131 -349q0 -246 -153 -392.5t-410 -146.5q-152 0 -264 52.5
t-193 162.5z" />
    <glyph glyph-name="six" unicode="6" horiz-adv-x="1237" 
d="M340 449q0 -131 73 -211t189 -80q131 0 206 78t75 213q0 137 -74 214.5t-205 77.5q-117 0 -190.5 -81t-73.5 -211zM473 889q49 23 96.5 35t94.5 12q196 0 323 -133t127 -340q0 -226 -142.5 -364t-375.5 -138q-218 0 -350.5 135t-132.5 355q0 235 320 685l26 35l256 363
l182 -92z" />
    <glyph glyph-name="seven" unicode="7" horiz-adv-x="1237" 
d="M229 31l598 1231h-677v188h1009l-737 -1505z" />
    <glyph glyph-name="eight" unicode="8" horiz-adv-x="1237" 
d="M375 774q-109 47 -160 123t-51 190q0 176 124 284t328 108q209 0 332 -109.5t123 -292.5q0 -108 -53.5 -185.5t-157.5 -117.5q122 -40 191 -141.5t69 -239.5q0 -202 -133.5 -317t-370.5 -115q-233 0 -367 115t-134 313q0 144 68 244.5t192 140.5zM621 1286
q-104 0 -164 -54.5t-60 -148.5q0 -92 58.5 -144t160.5 -52q105 0 163.5 51.5t58.5 144.5q0 95 -58 149t-159 54zM616 156q129 0 202 67.5t73 186.5q0 120 -73 188t-202 68q-126 0 -199 -69t-73 -187q0 -119 72 -186.5t200 -67.5z" />
    <glyph glyph-name="nine" unicode="9" horiz-adv-x="1237" 
d="M879 993q0 131 -72 211t-189 80q-131 0 -206.5 -78t-75.5 -213q0 -138 74 -216.5t204 -78.5q117 0 191 82.5t74 212.5zM745 551q-46 -23 -93.5 -34t-96.5 -11q-197 0 -324 132t-127 339q0 226 142.5 364t376.5 138q218 0 351.5 -134.5t133.5 -353.5q0 -235 -321 -685
l-25 -36l-258 -362l-180 92z" />
    <glyph glyph-name="colon" unicode=":" horiz-adv-x="674" 
d="M205 795q0 53 38.5 91t92.5 38q55 0 93 -37t38 -92t-38 -93t-93 -38t-93 38t-38 93zM205 111q0 53 38.5 92t92.5 39q55 0 93 -38t38 -93q0 -54 -38 -91.5t-93 -37.5t-93 37.5t-38 91.5z" />
    <glyph glyph-name="semicolon" unicode=";" horiz-adv-x="674" 
d="M293 795q0 53 37.5 91t91.5 38q56 0 93.5 -37t37.5 -92t-38 -93t-93 -38q-54 0 -91.5 38t-37.5 93zM315 248l195 -72l-260 -536l-131 51z" />
    <glyph glyph-name="less" unicode="&#x3c;" horiz-adv-x="1706" 
d="M1442 1176v-185l-934 -381l934 -381v-182l-1178 483v160z" />
    <glyph glyph-name="equal" unicode="=" horiz-adv-x="1706" 
d="M254 487h1198v-165h-1198v165zM254 901h1198v-168h-1198v168z" />
    <glyph glyph-name="greater" unicode="&#x3e;" horiz-adv-x="1706" 
d="M264 1176l1178 -486v-160l-1178 -483v182l934 381l-934 381v185z" />
    <glyph glyph-name="question" unicode="?" horiz-adv-x="1114" 
d="M381 1116h-172q0 6 -1 18.5t-1 18.5q0 157 95.5 251.5t254.5 94.5q163 0 259.5 -93.5t96.5 -250.5q0 -115 -56.5 -188.5t-223.5 -155.5l-24 -12q-197 -98 -197 -185q0 -50 39 -87.5t94 -37.5q67 0 103 40t38 116h178v-20q0 -148 -83 -229t-236 -81q-142 0 -234 83.5
t-92 211.5q0 118 63.5 196t247.5 167q125 59 160 97.5t35 92.5q0 67 -47.5 110.5t-120.5 43.5q-82 0 -129 -53.5t-47 -147.5zM397 92q0 54 39 92.5t92 38.5q56 0 93.5 -38t37.5 -93q0 -54 -38 -92.5t-93 -38.5q-54 0 -92.5 38.5t-38.5 92.5z" />
    <glyph glyph-name="at" unicode="@" horiz-adv-x="2048" 
d="M1174 283q-55 -87 -128 -127.5t-176 -40.5q-152 0 -232.5 86.5t-80.5 249.5q0 233 138 395t333 162q89 0 149 -34.5t99 -107.5l55 107h154l-148 -586q-1 -5 -2 -12q-6 -28 -6 -37q0 -38 26.5 -61t69.5 -23q51 0 107.5 30.5t105.5 84.5q72 76 110 177.5t38 215.5
q0 253 -187 411t-489 158q-138 0 -256 -31t-215 -94q-181 -113 -279 -291t-98 -395q0 -312 209.5 -499t558.5 -187q166 0 323.5 49t291.5 142l67 -99q-149 -113 -318.5 -170t-355.5 -57q-192 0 -351 48t-281 142q-155 118 -231.5 275.5t-76.5 357.5q0 165 52 313.5
t153 272.5q147 179 353.5 272t459.5 93q166 0 315 -45.5t255 -127.5q132 -102 198 -235.5t66 -300.5q0 -162 -65 -302t-185 -237q-69 -55 -150 -83.5t-168 -28.5q-106 0 -157 40.5t-51 125.5v4zM1233 707q-14 84 -61.5 130t-122.5 46q-127 0 -217.5 -128.5t-90.5 -310.5
q0 -98 45.5 -151t128.5 -53q90 0 163.5 66.5t99.5 172.5z" />
    <glyph glyph-name="A" unicode="A" horiz-adv-x="1356" 
d="M477 575h408l-150 334q-13 32 -27 73.5t-28 92.5q-12 -48 -25.5 -89.5t-27.5 -76.5zM1135 0l-166 377h-580l-170 -377h-250l709 1522l708 -1522h-251z" />
    <glyph glyph-name="B" unicode="B" horiz-adv-x="1180" 
d="M401 846h91q170 0 240.5 46.5t70.5 156.5q0 120 -65 168.5t-246 48.5h-91v-420zM401 199h82q125 0 187 10t98 35q44 29 68 78t24 108q0 70 -29 122t-83 81q-34 17 -77.5 25t-115.5 8h-72h-82v-467zM168 0v1464h369q158 0 233.5 -17t128.5 -56q68 -50 105.5 -131
t37.5 -179q0 -117 -54 -195.5t-157 -109.5q128 -20 201.5 -116.5t73.5 -243.5q0 -89 -31 -169t-88 -136q-60 -61 -149 -86t-299 -25h-371z" />
    <glyph glyph-name="C" unicode="C" horiz-adv-x="1470" 
d="M1343 1108q-101 86 -213.5 129t-236.5 43q-240 0 -390.5 -154t-150.5 -399q0 -237 146.5 -391t369.5 -154q130 0 247.5 46t225.5 139v-269q-96 -69 -209 -103t-245 -34q-168 0 -310.5 55t-250.5 162q-107 105 -164.5 247.5t-57.5 303.5t57.5 302.5t166.5 248.5
q109 108 250 163.5t305 55.5q129 0 246 -37.5t227 -113.5z" />
    <glyph glyph-name="D" unicode="D" horiz-adv-x="1516" 
d="M406 215h200q165 0 247.5 22t143.5 74q83 71 124.5 176.5t41.5 245.5t-41.5 245.5t-124.5 176.5q-62 52 -148.5 74t-270.5 22h-86h-86v-1036zM168 0v1464h321q313 0 440.5 -31.5t223.5 -105.5q127 -97 192.5 -249t65.5 -347t-65.5 -345.5t-192.5 -248.5
q-96 -74 -218.5 -105.5t-381.5 -31.5h-64h-321z" />
    <glyph glyph-name="E" unicode="E" horiz-adv-x="1090" 
d="M168 0v1464h817v-202h-579v-367h579v-209h-579v-473h579v-213h-817z" />
    <glyph glyph-name="F" unicode="F" horiz-adv-x="1075" 
d="M168 0v1464h817v-202h-579v-365h579v-209h-579v-688h-238z" />
    <glyph glyph-name="G" unicode="G" horiz-adv-x="1645" 
d="M979 750h580q0 -15 1 -42q3 -71 3 -96q0 -309 -177 -480t-499 -171q-180 0 -321 53t-247 160q-104 106 -159.5 249t-55.5 306q0 166 56.5 306t167.5 247q107 105 251 160t308 55q173 0 309.5 -63t243.5 -193l-174 -131q-74 86 -167 128t-208 42q-238 0 -388.5 -152.5
t-150.5 -396.5q0 -248 150.5 -402.5t390.5 -154.5q204 0 321 95t117 259v21h-352v201z" />
    <glyph glyph-name="H" unicode="H" horiz-adv-x="1532" 
d="M168 0v1464h238v-540h720v540h238v-1464h-238v711h-720v-711h-238z" />
    <glyph glyph-name="I" unicode="I" horiz-adv-x="584" 
d="M172 0v1464h238v-1464h-238z" />
    <glyph glyph-name="J" unicode="J" horiz-adv-x="807" 
d="M156 266q37 -44 71 -64t72 -20q70 0 98.5 46t28.5 171v1065h236v-1142q0 -186 -82 -273.5t-256 -87.5q-96 0 -173.5 37t-146.5 115z" />
    <glyph glyph-name="K" unicode="K" horiz-adv-x="1270" 
d="M168 0v1464h238v-606l526 606h291l-580 -651l649 -813h-307l-579 748v-748h-238z" />
    <glyph glyph-name="L" unicode="L" horiz-adv-x="963" 
d="M168 0v1464h238v-1251h532v-213h-770z" />
    <glyph glyph-name="M" unicode="M" horiz-adv-x="1767" 
d="M1362 723q-4 17 -13 94q-8 64 -14 106q-9 -50 -25.5 -100t-41.5 -102l-383 -780l-383 796q-24 49 -41.5 95t-30.5 91q-1 -46 -7.5 -96.5t-19.5 -105.5l-157 -721h-219l346 1526l432 -924q10 -22 30.5 -73t49.5 -126q21 63 66 160q12 26 18 40l422 923l354 -1526h-221z
" />
    <glyph glyph-name="N" unicode="N" horiz-adv-x="1645" 
d="M168 0v1522l930 -895q38 -38 77 -81t82 -97v1015h220v-1521l-949 911q-38 37 -73.5 78t-67.5 86v-1018h-219z" />
    <glyph glyph-name="O" unicode="O" horiz-adv-x="1774" 
d="M1421 729q0 111 -40.5 211t-116.5 178q-74 77 -171.5 118.5t-205.5 41.5t-205.5 -41t-173.5 -119q-76 -77 -116 -177t-40 -212q0 -111 40 -210t116 -177t173 -119t206 -41q107 0 203.5 41t173.5 119q76 78 116.5 177.5t40.5 209.5zM1669 729q0 -156 -58.5 -295
t-170.5 -248q-113 -109 -255 -167t-298 -58q-158 0 -301.5 58.5t-253.5 166.5q-112 109 -170 247t-58 296q0 157 58 296t170 249q112 109 254 166t301 57q158 0 299.5 -57t253.5 -166q112 -111 170.5 -250.5t58.5 -294.5z" />
    <glyph glyph-name="P" unicode="P" horiz-adv-x="1090" 
d="M406 852h61q198 0 264 43t66 152q0 117 -70.5 165t-259.5 48h-61v-408zM391 657v-657h-223v1464h360q160 0 235.5 -17.5t131.5 -57.5q69 -51 108 -137.5t39 -190.5t-39 -192t-108 -138q-56 -40 -131.5 -57t-235.5 -17h-47h-90z" />
    <glyph glyph-name="Q" unicode="Q" horiz-adv-x="1774" 
d="M1151 524l141 -151q67 81 98 168.5t31 189.5q0 112 -39.5 211t-115.5 176q-77 78 -175 120t-204 42q-107 0 -205 -42t-174 -120q-76 -77 -116 -176t-40 -211q0 -230 155.5 -387.5t385.5 -157.5q62 0 118.5 13.5t112.5 42.5l-262 282h289zM1448 199l311 -336h-284
l-191 207q-98 -53 -199 -79t-211 -26q-149 0 -292 59t-250 164q-111 108 -169.5 247t-58.5 296t58.5 296t169.5 247q110 108 252.5 165.5t302.5 57.5q159 0 301 -57.5t252 -165.5q111 -109 170 -248t59 -295q0 -152 -56.5 -288.5t-164.5 -243.5z" />
    <glyph glyph-name="R" unicode="R" horiz-adv-x="1147" 
d="M406 840h43q189 0 251 44t62 156q0 121 -66.5 170.5t-246.5 49.5h-43v-420zM391 655v-655h-223v1464h332q146 0 226.5 -19t137.5 -63q68 -53 105 -137t37 -184q0 -176 -85 -275.5t-251 -119.5l504 -666h-269l-487 655h-27z" />
    <glyph glyph-name="S" unicode="S" horiz-adv-x="1124" 
d="M84 293l190 88q27 -98 99 -149.5t184 -51.5q106 0 168.5 59t62.5 158q0 129 -214 230q-30 15 -46 22q-242 118 -322.5 213.5t-80.5 233.5q0 179 121.5 290t318.5 111q162 0 271 -62.5t151 -179.5l-186 -96q-44 69 -96.5 101t-120.5 32q-96 0 -152.5 -50t-56.5 -134
q0 -132 248 -246q19 -9 30 -14q217 -100 298 -195.5t81 -238.5q0 -208 -131 -330.5t-354 -122.5q-187 0 -306.5 86t-156.5 246z" />
    <glyph glyph-name="T" unicode="T" horiz-adv-x="1042" 
d="M641 1262v-1262h-238v1262h-389v202h1014v-202h-387z" />
    <glyph glyph-name="U" unicode="U" horiz-adv-x="1524" 
d="M162 1464h235v-889q0 -198 91.5 -297.5t273.5 -99.5q181 0 272.5 99.5t91.5 297.5v889h238v-911q0 -297 -150 -444.5t-452 -147.5t-451 147t-149 445v911z" />
    <glyph glyph-name="V" unicode="V" horiz-adv-x="1266" 
d="M633 -57l-653 1521h247l328 -780q29 -68 48 -125.5t30 -109.5q13 55 33 114t47 121l327 780h246z" />
    <glyph glyph-name="W" unicode="W" horiz-adv-x="1923" 
d="M-6 1464h235l277 -739q27 -73 45.5 -128t32.5 -103q35 116 73 227q5 14 7 19l294 782l310 -797q22 -58 41.5 -116t36.5 -117q10 45 27 99t44 128l275 745h237l-567 -1521l-334 835q-22 56 -40 107.5t-32 97.5q-17 -59 -34 -110.5t-35 -98.5l-328 -831z" />
    <glyph glyph-name="X" unicode="X" horiz-adv-x="1171" 
d="M0 0l475 766l-420 698h250l211 -358q17 -28 63 -116l15 -29q16 31 35.5 66t44.5 77l223 360h244l-428 -694l461 -770h-263l-245 415l-4 7q-40 75 -74 141q-17 -34 -37 -70.5t-43 -74.5l-256 -418h-252z" />
    <glyph glyph-name="Y" unicode="Y" horiz-adv-x="1214" 
d="M483 0v670l-493 794h250l307 -497q11 -19 27.5 -50t33.5 -67q14 35 29.5 66t32.5 57l315 491h238l-504 -794v-670h-236z" />
    <glyph glyph-name="Z" unicode="Z" horiz-adv-x="1180" 
d="M18 0l746 1262h-621v202h987l-739 -1251h748v-213h-1121z" />
    <glyph glyph-name="bracketleft" unicode="[" horiz-adv-x="621" 
d="M389 -256h191v-158h-381v1911h381v-156h-191v-1597z" />
    <glyph glyph-name="backslash" unicode="\" horiz-adv-x="887" 
d="M717 -190l-717 1687h170l717 -1687h-170z" />
    <glyph glyph-name="bracketright" unicode="]" horiz-adv-x="621" 
d="M231 -256v1597h-188v156h379v-1911h-379v158h188z" />
    <glyph glyph-name="asciicircum" unicode="^" horiz-adv-x="2048" 
d="M915 1460h218l495 -561h-207l-397 397l-399 -397h-207z" />
    <glyph glyph-name="underscore" unicode="_" 
d="M0 -311h1024v-172h-1024v172z" />
    <glyph glyph-name="grave" unicode="`" 
d="M653 1092h-123l-292 272h225z" />
    <glyph glyph-name="a" unicode="a" horiz-adv-x="1192" 
d="M1042 0h-217v123q-58 -82 -135.5 -122t-177.5 -40q-201 0 -316.5 137.5t-115.5 376.5q0 227 118 366.5t308 139.5q116 0 198.5 -48.5t120.5 -139.5v155h217v-948zM831 477q0 147 -68.5 229t-191.5 82t-193.5 -84.5t-70.5 -234.5q0 -151 68 -233t192 -82q117 0 190.5 89
t73.5 234z" />
    <glyph glyph-name="b" unicode="b" horiz-adv-x="1192" 
d="M360 477q0 -145 74.5 -234t192.5 -89q123 0 190.5 82t67.5 233q0 150 -70.5 234.5t-193.5 84.5t-192 -82t-69 -229zM367 1550v-757q38 90 121.5 139t199.5 49q189 0 306.5 -139.5t117.5 -366.5q0 -239 -115.5 -376.5t-316.5 -137.5q-100 0 -177.5 40t-135.5 122v-123
h-217v1550h217z" />
    <glyph glyph-name="c" unicode="c" horiz-adv-x="930" 
d="M858 678q-50 55 -116.5 84t-143.5 29q-133 0 -213 -86t-80 -228q0 -148 80.5 -232.5t222.5 -84.5q79 0 141 29.5t109 89.5v-250q-60 -34 -128.5 -51t-145.5 -17q-223 0 -363.5 142t-140.5 368q0 229 145.5 369.5t380.5 140.5q74 0 136 -14.5t116 -44.5v-244z" />
    <glyph glyph-name="d" unicode="d" horiz-adv-x="1192" 
d="M831 477q0 147 -68.5 229t-191.5 82t-193.5 -84.5t-70.5 -234.5q0 -151 68 -233t192 -82q118 0 191 88.5t73 234.5zM825 1550h217v-1550h-217v123q-58 -82 -135.5 -122t-177.5 -40q-201 0 -316.5 137.5t-115.5 376.5q0 227 118 366.5t308 139.5q116 0 198.5 -48.5
t120.5 -139.5v757z" />
    <glyph glyph-name="e" unicode="e" horiz-adv-x="1139" 
d="M1063 442h-758q8 -133 79 -207.5t189 -74.5q105 0 175 44t122 142l183 -102q-80 -143 -198 -213t-277 -70q-228 0 -363 139t-135 371q0 223 139.5 366.5t358.5 143.5q229 0 357 -131t128 -367v-41zM838 588q-13 102 -78 155.5t-178 53.5q-107 0 -172 -52t-91 -157h519z
" />
    <glyph glyph-name="f" unicode="f" horiz-adv-x="627" 
d="M180 0v758h-166v190h166v254q0 189 78.5 279t243.5 90q35 0 72 -5t75 -16v-196q-26 15 -52.5 22.5t-53.5 7.5q-78 0 -112 -48t-34 -162v-226h228v-190h-228v-758h-217z" />
    <glyph glyph-name="g" unicode="g" horiz-adv-x="1192" 
d="M831 477q0 147 -68.5 229t-191.5 82t-193.5 -84.5t-70.5 -234.5q0 -151 68 -233t192 -82q117 0 190.5 89t73.5 234zM1042 59q0 -278 -111 -391.5t-374 -113.5q-196 0 -313 82.5t-119 219.5l233 1q5 -61 57 -93t146 -32q139 0 200 61t62 204l2 126q-58 -82 -135.5 -122
t-177.5 -40q-201 0 -316.5 137.5t-115.5 376.5q0 227 118 366.5t308 139.5q116 0 198.5 -48.5t120.5 -139.5v155h217v-889z" />
    <glyph glyph-name="h" unicode="h" horiz-adv-x="1204" 
d="M150 0v1550h204v-757q65 98 153 143t214 45q106 0 180.5 -33.5t116.5 -99.5q25 -39 36 -91t11 -182v-575h-219v487q0 187 -45.5 248.5t-161.5 61.5q-76 0 -135.5 -28t-93.5 -79q-24 -34 -33.5 -87.5t-9.5 -170.5v-432h-217z" />
    <glyph glyph-name="i" unicode="i" horiz-adv-x="537" 
d="M131 1358q0 55 40.5 95t96.5 40q58 0 96.5 -38.5t38.5 -96.5t-39 -97.5t-96 -39.5q-56 0 -96.5 40.5t-40.5 96.5zM160 0v948h217v-948h-217z" />
    <glyph glyph-name="j" unicode="j" horiz-adv-x="537" 
d="M131 1358q0 55 40.5 95t96.5 40q58 0 96.5 -38.5t38.5 -96.5t-39 -97.5t-96 -39.5q-56 0 -96.5 40.5t-40.5 96.5zM160 -446v1394h217v-1394h-217z" />
    <glyph glyph-name="k" unicode="k" horiz-adv-x="1057" 
d="M150 0v1550h217v-995l397 393h268l-430 -418l471 -530h-280l-426 489v-489h-217z" />
    <glyph glyph-name="l" unicode="l" horiz-adv-x="537" 
d="M160 0v1550h217v-1550h-217z" />
    <glyph glyph-name="m" unicode="m" horiz-adv-x="1792" 
d="M367 0h-217v948h204v-155q65 99 147.5 144.5t194.5 45.5q111 0 184 -46.5t111 -141.5q75 98 159.5 143t192.5 45q94 0 164 -34.5t109 -100.5q18 -31 26.5 -74t8.5 -123v-76v-575h-217v487q0 191 -40.5 251.5t-144.5 60.5q-128 0 -182.5 -81.5t-54.5 -285.5v-432h-219v487
q0 176 -42.5 244t-146.5 68q-64 0 -117 -29t-84 -80q-20 -33 -28 -81t-8 -177v-432z" />
    <glyph glyph-name="n" unicode="n" horiz-adv-x="1204" 
d="M150 0v948h204v-155q65 98 153 143t214 45q106 0 180.5 -33.5t116.5 -99.5q25 -39 36 -91t11 -182v-575h-219v487q0 187 -45.5 248.5t-161.5 61.5q-76 0 -135.5 -28t-93.5 -79q-24 -34 -33.5 -87.5t-9.5 -170.5v-432h-217z" />
    <glyph glyph-name="o" unicode="o" horiz-adv-x="1204" 
d="M895 471q0 132 -85 223.5t-208 91.5q-122 0 -207.5 -91.5t-85.5 -223.5t85.5 -223.5t207.5 -91.5t207.5 91.5t85.5 223.5zM80 473q0 104 39.5 196.5t113.5 164.5q73 71 168 109t199 38q107 0 201.5 -38t169.5 -112q75 -73 114 -165t39 -193q0 -105 -38.5 -197
t-112.5 -163q-78 -75 -173 -113.5t-200 -38.5q-103 0 -198 38.5t-169 111.5q-75 74 -114 166t-39 196z" />
    <glyph glyph-name="p" unicode="p" horiz-adv-x="1192" 
d="M360 477q0 -147 73.5 -235t193.5 -88q123 0 190.5 82t67.5 233q0 150 -70.5 234.5t-193.5 84.5t-192 -82t-69 -229zM150 -446v1394h217v-155q38 90 121.5 139t199.5 49q189 0 306.5 -139.5t117.5 -366.5q0 -239 -115.5 -376.5t-316.5 -137.5q-100 0 -177.5 40t-135.5 122
v-569h-217z" />
    <glyph glyph-name="q" unicode="q" horiz-adv-x="1192" 
d="M831 477q0 147 -68.5 229t-191.5 82t-193.5 -84.5t-70.5 -234.5q0 -151 68 -233t192 -82q119 0 191.5 88t72.5 235zM1042 -446h-217v569q-58 -82 -135.5 -122t-177.5 -40q-201 0 -316.5 137.5t-115.5 376.5q0 227 118 366.5t308 139.5q116 0 198.5 -48.5t120.5 -139.5
v155h217v-1394z" />
    <glyph glyph-name="r" unicode="r" horiz-adv-x="754" 
d="M367 797q35 94 92.5 139t142.5 45q46 0 90.5 -11t87.5 -32l-78 -184q-28 20 -60.5 29.5t-72.5 9.5q-108 0 -155 -86.5t-47 -290.5v-416h-217v950h217v-153z" />
    <glyph glyph-name="s" unicode="s" horiz-adv-x="872" 
d="M41 172l180 98q20 -71 74 -108t139 -37q73 0 114.5 33.5t41.5 91.5q0 77 -148 132q-50 18 -77 30q-152 63 -212.5 128t-60.5 158q0 127 99.5 206t263.5 79q110 0 188.5 -40.5t114.5 -115.5l-154 -106q-17 45 -59.5 71.5t-98.5 26.5q-62 0 -99.5 -29.5t-37.5 -78.5
q0 -74 168 -135q53 -19 82 -31q131 -52 187.5 -117.5t56.5 -163.5q0 -142 -103 -222.5t-284 -80.5q-139 0 -231 52t-144 159z" />
    <glyph glyph-name="t" unicode="t" horiz-adv-x="621" 
d="M201 0v758h-166v190h166v359h217v-359h166v-190h-166v-758h-217z" />
    <glyph glyph-name="u" unicode="u" horiz-adv-x="1204" 
d="M360 948v-534q0 -138 57 -198t185 -60t185 60t57 198v534h217v-469q0 -272 -109 -395t-348 -123q-243 0 -352 122t-109 396v469h217z" />
    <glyph glyph-name="v" unicode="v" horiz-adv-x="967" 
d="M483 -57l-497 1005h237l207 -477q10 -22 24 -66t29 -105q10 43 23.5 85.5t32.5 85.5l206 477h236z" />
    <glyph glyph-name="w" unicode="w" horiz-adv-x="1536" 
d="M1057 -57l-219 493q-25 57 -41 101.5t-29 87.5q-22 -65 -39 -111.5t-27 -69.5l-225 -501l-491 1005h231l213 -457q13 -29 25.5 -79.5t21.5 -111.5q1 36 12 75t37 96l232 512h18l236 -512q22 -48 32.5 -89t12.5 -82q9 54 23 102t32 87l209 459h229z" />
    <glyph glyph-name="x" unicode="x" horiz-adv-x="928" 
d="M215 0h-240l359 510l-307 438h239l133 -196q21 -30 37 -58t29 -57q12 24 27.5 50.5t39.5 66.5l132 194h237l-307 -440l356 -508h-237l-176 249l-8 12q-51 77 -66 118q-20 -38 -38.5 -70.5t-37.5 -60.5z" />
    <glyph glyph-name="y" unicode="y" horiz-adv-x="965" 
d="M313 -446h-223l260 528l-348 866h240l174 -491q15 -45 26.5 -91.5t18.5 -94.5q13 50 62 159l5 12l234 506h235z" />
    <glyph glyph-name="z" unicode="z" horiz-adv-x="920" 
d="M879 0h-881l528 758h-475v190h828l-517 -758h517v-190z" />
    <glyph glyph-name="braceleft" unicode="{" 
d="M874 1477v-179q-8 0 -24 1t-23 1q-109 0 -147.5 -41.5t-38.5 -173.5v-241q0 -155 -44 -220.5t-159 -93.5q114 -27 158.5 -92.5t44.5 -220.5v-240q0 -132 39.5 -174.5t148.5 -42.5q7 0 22 1t23 1v-176h-63q-102 0 -165.5 12t-106.5 37q-57 34 -80 96t-23 203v248
q0 144 -52.5 203t-178.5 59q-7 0 -21.5 -1t-21.5 -1v179q7 0 21.5 -1.5t21.5 -1.5q126 0 178.5 59t52.5 202v247q0 145 23 206.5t80 94.5q44 27 109 38.5t181 11.5h45z" />
    <glyph glyph-name="bar" unicode="|" 
d="M424 1565h178v-2048h-178v2048z" />
    <glyph glyph-name="braceright" unicode="}" 
d="M152 1477h45q115 0 179.5 -11.5t108.5 -38.5q57 -33 80 -95t23 -206v-247q0 -144 52 -202.5t179 -58.5q6 0 21 1.5t22 1.5v-179q-7 0 -21.5 1t-21.5 1q-126 0 -178.5 -59t-52.5 -203v-248q0 -143 -23 -204t-80 -95q-43 -26 -108 -37.5t-180 -11.5h-45v176q8 0 23 -1
t22 -1q109 0 147.5 42t38.5 175v240q0 153 45 219t160 94q-115 28 -160 93.5t-45 220.5v241q0 132 -38 173.5t-146 41.5q-7 0 -23 -1t-24 -1v179z" />
    <glyph glyph-name="asciitilde" unicode="~" horiz-adv-x="1706" 
d="M1530 784v-184q-103 -71 -197.5 -106t-183.5 -35q-44 0 -92.5 8.5t-98.5 26.5q-25 8 -76 26q-212 74 -319 74q-82 0 -174 -38t-211 -122v187q106 72 202 107.5t185 35.5q62 0 125.5 -12t168.5 -48q13 -4 42 -15q164 -58 250 -58q85 0 177 37t202 116z" />
    <glyph glyph-name="Adieresis" unicode="&#xc4;" horiz-adv-x="1356" 
d="M477 575h408l-150 334q-13 32 -27 73.5t-28 92.5q-12 -48 -25.5 -89.5t-27.5 -76.5zM1135 0l-166 377h-580l-170 -377h-250l709 1522l708 -1522h-251zM739 1771q0 48 36 83.5t85 35.5t84 -34.5t35 -84.5q0 -53 -33.5 -87.5t-85.5 -34.5q-51 0 -86 35t-35 87zM375 1771
q0 48 36 83.5t85 35.5t84 -34.5t35 -84.5q0 -53 -33.5 -87.5t-85.5 -34.5q-51 0 -86 35t-35 87z" />
    <glyph glyph-name="Aring" unicode="&#xc5;" horiz-adv-x="1356" 
d="M565 1735q0 -48 33.5 -80.5t81.5 -32.5q47 0 81 33t34 80t-33.5 80.5t-81.5 33.5t-81.5 -33.5t-33.5 -80.5zM442 1735q0 99 68.5 168t167.5 69q98 0 167.5 -69.5t69.5 -167.5q0 -99 -68.5 -167.5t-168.5 -68.5t-168 68t-68 168zM1135 0l-166 377h-580l-170 -377h-250
l684 1464h52l681 -1464h-251zM477 575h408l-150 334q-13 32 -27 73.5t-28 92.5q-12 -48 -25.5 -89.5t-27.5 -76.5z" />
    <glyph glyph-name="Ccedilla" unicode="&#xc7;" horiz-adv-x="1470" 
d="M1343 1108q-101 86 -213.5 129t-236.5 43q-240 0 -390.5 -154t-150.5 -399q0 -237 146.5 -391t369.5 -154q130 0 247.5 46t225.5 139v-269q-96 -69 -209 -103t-245 -34q-168 0 -310.5 55t-250.5 162q-107 105 -164.5 247.5t-57.5 303.5t57.5 302.5t166.5 248.5
q109 108 250 163.5t305 55.5q129 0 246 -37.5t227 -113.5zM630 -393v106q81 -19 140 -28t102 -9q52 0 77 17t25 51q0 39 -31.5 56.5t-101.5 17.5q-7 0 -20 -1t-21 -1v184h86v-86h17q112 0 167.5 -43.5t55.5 -130.5q0 -83 -61.5 -127.5t-176.5 -44.5q-49 0 -114 9.5
t-144 29.5z" />
    <glyph glyph-name="Eacute" unicode="&#xc9;" horiz-adv-x="1090" 
d="M168 0v1464h817v-202h-579v-367h579v-209h-579v-473h579v-213h-817zM439 1608l190 272h225l-292 -272h-123z" />
    <glyph glyph-name="Ntilde" unicode="&#xd1;" horiz-adv-x="1645" 
d="M168 0v1522l930 -895q38 -38 77 -81t82 -97v1015h220v-1521l-949 911q-38 37 -73.5 78t-67.5 86v-1018h-219zM1116 1857q-18 -99 -69.5 -153.5t-125.5 -54.5q-13 0 -26 1.5t-27 4.5l-124 32q-16 3 -24 4t-14 1q-35 0 -55 -16t-31 -52h-90q23 106 69.5 157.5t119.5 51.5
q15 0 30.5 -2t30.5 -6l117 -31q8 -2 18 -3t29 -1q31 0 52 17.5t30 49.5h90z" />
    <glyph glyph-name="Odieresis" unicode="&#xd6;" horiz-adv-x="1774" 
d="M1421 729q0 111 -40.5 211t-116.5 178q-74 77 -171.5 118.5t-205.5 41.5t-205.5 -41t-173.5 -119q-76 -77 -116 -177t-40 -212q0 -111 40 -210t116 -177t173 -119t206 -41q107 0 203.5 41t173.5 119q76 78 116.5 177.5t40.5 209.5zM1669 729q0 -156 -58.5 -295
t-170.5 -248q-113 -109 -255 -167t-298 -58q-158 0 -301.5 58.5t-253.5 166.5q-112 109 -170 247t-58 296q0 157 58 296t170 249q112 109 254 166t301 57q158 0 299.5 -57t253.5 -166q112 -111 170.5 -250.5t58.5 -294.5zM948 1771q0 48 36 83.5t85 35.5t84 -34.5t35 -84.5
q0 -53 -33.5 -87.5t-85.5 -34.5q-51 0 -86 35t-35 87zM584 1771q0 48 36 83.5t85 35.5t84 -34.5t35 -84.5q0 -53 -33.5 -87.5t-85.5 -34.5q-51 0 -86 35t-35 87z" />
    <glyph glyph-name="Udieresis" unicode="&#xdc;" horiz-adv-x="1524" 
d="M162 1464h235v-889q0 -198 91.5 -297.5t273.5 -99.5q181 0 272.5 99.5t91.5 297.5v889h238v-911q0 -297 -150 -444.5t-452 -147.5t-451 147t-149 445v911zM823 1771q0 48 36 83.5t85 35.5t84 -34.5t35 -84.5q0 -53 -33.5 -87.5t-85.5 -34.5q-51 0 -86 35t-35 87z
M459 1771q0 48 36 83.5t85 35.5t84 -34.5t35 -84.5q0 -53 -33.5 -87.5t-85.5 -34.5q-51 0 -86 35t-35 87z" />
    <glyph glyph-name="aacute" unicode="&#xe1;" horiz-adv-x="1192" 
d="M1042 0h-217v123q-58 -82 -135.5 -122t-177.5 -40q-201 0 -316.5 137.5t-115.5 376.5q0 227 118 366.5t308 139.5q116 0 198.5 -48.5t120.5 -139.5v155h217v-948zM831 477q0 147 -68.5 229t-191.5 82t-193.5 -84.5t-70.5 -234.5q0 -151 68 -233t192 -82q117 0 190.5 89
t73.5 234zM465 1092l190 272h225l-292 -272h-123z" />
    <glyph glyph-name="agrave" unicode="&#xe0;" horiz-adv-x="1192" 
d="M1042 0h-217v123q-58 -82 -135.5 -122t-177.5 -40q-201 0 -316.5 137.5t-115.5 376.5q0 227 118 366.5t308 139.5q116 0 198.5 -48.5t120.5 -139.5v155h217v-948zM831 477q0 147 -68.5 229t-191.5 82t-193.5 -84.5t-70.5 -234.5q0 -151 68 -233t192 -82q117 0 190.5 89
t73.5 234zM747 1092h-123l-292 272h225z" />
    <glyph glyph-name="acircumflex" unicode="&#xe2;" horiz-adv-x="1192" 
d="M1042 0h-217v123q-58 -82 -135.5 -122t-177.5 -40q-201 0 -316.5 137.5t-115.5 376.5q0 227 118 366.5t308 139.5q116 0 198.5 -48.5t120.5 -139.5v155h217v-948zM831 477q0 147 -68.5 229t-191.5 82t-193.5 -84.5t-70.5 -234.5q0 -151 68 -233t192 -82q117 0 190.5 89
t73.5 234zM309 1092l193 272h208l193 -272h-123l-174 157l-174 -157h-123z" />
    <glyph glyph-name="adieresis" unicode="&#xe4;" horiz-adv-x="1192" 
d="M1042 0h-217v123q-58 -82 -135.5 -122t-177.5 -40q-201 0 -316.5 137.5t-115.5 376.5q0 227 118 366.5t308 139.5q116 0 198.5 -48.5t120.5 -139.5v155h217v-948zM831 477q0 147 -68.5 229t-191.5 82t-193.5 -84.5t-70.5 -234.5q0 -151 68 -233t192 -82q117 0 190.5 89
t73.5 234zM667 1255q0 48 36 83.5t85 35.5t84 -34.5t35 -84.5q0 -53 -33.5 -87.5t-85.5 -34.5q-51 0 -86 35t-35 87zM303 1255q0 48 36 83.5t85 35.5t84 -34.5t35 -84.5q0 -53 -33.5 -87.5t-85.5 -34.5q-51 0 -86 35t-35 87z" />
    <glyph glyph-name="atilde" unicode="&#xe3;" horiz-adv-x="1192" 
d="M1042 0h-217v123q-58 -82 -135.5 -122t-177.5 -40q-201 0 -316.5 137.5t-115.5 376.5q0 227 118 366.5t308 139.5q116 0 198.5 -48.5t120.5 -139.5v155h217v-948zM831 477q0 147 -68.5 229t-191.5 82t-193.5 -84.5t-70.5 -234.5q0 -151 68 -233t192 -82q117 0 190.5 89
t73.5 234zM899 1341q-18 -99 -69.5 -153.5t-125.5 -54.5q-13 0 -26 1.5t-27 4.5l-124 32q-16 3 -24 4t-14 1q-35 0 -55 -16t-31 -52h-90q23 106 69.5 157.5t119.5 51.5q15 0 30.5 -2t30.5 -6l117 -31q8 -2 18 -3t29 -1q31 0 52 17.5t30 49.5h90z" />
    <glyph glyph-name="aring" unicode="&#xe5;" horiz-adv-x="1192" 
d="M455 1284q0 -48 32.5 -80.5t79.5 -32.5q48 0 81.5 33.5t33.5 79.5q0 48 -33.5 81.5t-81.5 33.5q-47 0 -79.5 -33.5t-32.5 -81.5zM330 1284q0 99 69 168.5t168 69.5q98 0 167 -69.5t69 -168.5q0 -98 -68.5 -166.5t-167.5 -68.5q-100 0 -168.5 68t-68.5 167zM831 477
q0 147 -68.5 229t-191.5 82t-193.5 -84.5t-70.5 -234.5q0 -151 68 -233t192 -82q117 0 190.5 89t73.5 234zM1042 0h-217v123q-58 -82 -135.5 -122t-177.5 -40q-201 0 -316.5 137.5t-115.5 376.5q0 227 118 366.5t308 139.5q116 0 198.5 -48.5t120.5 -139.5v155h217v-948z
" />
    <glyph glyph-name="ccedilla" unicode="&#xe7;" horiz-adv-x="930" 
d="M858 678q-50 55 -116.5 84t-143.5 29q-133 0 -213 -86t-80 -228q0 -148 80.5 -232.5t222.5 -84.5q79 0 141 29.5t109 89.5v-250q-60 -34 -128.5 -51t-145.5 -17q-223 0 -363.5 142t-140.5 368q0 229 145.5 369.5t380.5 140.5q74 0 136 -14.5t116 -44.5v-244zM317 -393
v106q81 -19 140 -28t102 -9q52 0 77 17t25 51q0 39 -31.5 56.5t-101.5 17.5q-7 0 -20 -1t-21 -1v184h86v-86h17q112 0 167.5 -43.5t55.5 -130.5q0 -83 -61.5 -127.5t-176.5 -44.5q-49 0 -114 9.5t-144 29.5z" />
    <glyph glyph-name="eacute" unicode="&#xe9;" horiz-adv-x="1139" 
d="M1063 442h-758q8 -133 79 -207.5t189 -74.5q105 0 175 44t122 142l183 -102q-80 -143 -198 -213t-277 -70q-228 0 -363 139t-135 371q0 223 139.5 366.5t358.5 143.5q229 0 357 -131t128 -367v-41zM838 588q-13 102 -78 155.5t-178 53.5q-107 0 -172 -52t-91 -157h519z
M437 1092l190 272h225l-292 -272h-123z" />
    <glyph glyph-name="egrave" unicode="&#xe8;" horiz-adv-x="1139" 
d="M1063 442h-758q8 -133 79 -207.5t189 -74.5q105 0 175 44t122 142l183 -102q-80 -143 -198 -213t-277 -70q-228 0 -363 139t-135 371q0 223 139.5 366.5t358.5 143.5q229 0 357 -131t128 -367v-41zM838 588q-13 102 -78 155.5t-178 53.5q-107 0 -172 -52t-91 -157h519z
M719 1092h-123l-292 272h225z" />
    <glyph glyph-name="ecircumflex" unicode="&#xea;" horiz-adv-x="1139" 
d="M1063 442h-758q8 -133 79 -207.5t189 -74.5q105 0 175 44t122 142l183 -102q-80 -143 -198 -213t-277 -70q-228 0 -363 139t-135 371q0 223 139.5 366.5t358.5 143.5q229 0 357 -131t128 -367v-41zM838 588q-13 102 -78 155.5t-178 53.5q-107 0 -172 -52t-91 -157h519z
M281 1092l193 272h208l193 -272h-123l-174 157l-174 -157h-123z" />
    <glyph glyph-name="edieresis" unicode="&#xeb;" horiz-adv-x="1139" 
d="M1063 442h-758q8 -133 79 -207.5t189 -74.5q105 0 175 44t122 142l183 -102q-80 -143 -198 -213t-277 -70q-228 0 -363 139t-135 371q0 223 139.5 366.5t358.5 143.5q229 0 357 -131t128 -367v-41zM838 588q-13 102 -78 155.5t-178 53.5q-107 0 -172 -52t-91 -157h519z
M639 1255q0 48 36 83.5t85 35.5t84 -34.5t35 -84.5q0 -53 -33.5 -87.5t-85.5 -34.5q-51 0 -86 35t-35 87zM275 1255q0 48 36 83.5t85 35.5t84 -34.5t35 -84.5q0 -53 -33.5 -87.5t-85.5 -34.5q-51 0 -86 35t-35 87z" />
    <glyph glyph-name="iacute" unicode="&#xed;" horiz-adv-x="537" 
d="M160 0v948h217v-948h-217zM127 1092l190 272h225l-292 -272h-123z" />
    <glyph glyph-name="igrave" unicode="&#xec;" horiz-adv-x="537" 
d="M160 0v948h217v-948h-217zM409 1092h-123l-292 272h225z" />
    <glyph glyph-name="icircumflex" unicode="&#xee;" horiz-adv-x="537" 
d="M160 0v948h217v-948h-217zM-29 1092l193 272h208l193 -272h-123l-174 157l-174 -157h-123z" />
    <glyph glyph-name="idieresis" unicode="&#xef;" horiz-adv-x="537" 
d="M160 0v948h217v-948h-217zM329 1255q0 48 36 83.5t85 35.5t84 -34.5t35 -84.5q0 -53 -33.5 -87.5t-85.5 -34.5q-51 0 -86 35t-35 87zM-35 1255q0 48 36 83.5t85 35.5t84 -34.5t35 -84.5q0 -53 -33.5 -87.5t-85.5 -34.5q-51 0 -86 35t-35 87z" />
    <glyph glyph-name="ntilde" unicode="&#xf1;" horiz-adv-x="1204" 
d="M150 0v948h204v-155q65 98 153 143t214 45q106 0 180.5 -33.5t116.5 -99.5q25 -39 36 -91t11 -182v-575h-219v487q0 187 -45.5 248.5t-161.5 61.5q-76 0 -135.5 -28t-93.5 -79q-24 -34 -33.5 -87.5t-9.5 -170.5v-432h-217zM911 1341q-18 -99 -69.5 -153.5t-125.5 -54.5
q-13 0 -26 1.5t-27 4.5l-124 32q-16 3 -24 4t-14 1q-35 0 -55 -16t-31 -52h-90q23 106 69.5 157.5t119.5 51.5q15 0 30.5 -2t30.5 -6l117 -31q8 -2 18 -3t29 -1q31 0 52 17.5t30 49.5h90z" />
    <glyph glyph-name="oacute" unicode="&#xf3;" horiz-adv-x="1204" 
d="M895 471q0 132 -85 223.5t-208 91.5q-122 0 -207.5 -91.5t-85.5 -223.5t85.5 -223.5t207.5 -91.5t207.5 91.5t85.5 223.5zM80 473q0 104 39.5 196.5t113.5 164.5q73 71 168 109t199 38q107 0 201.5 -38t169.5 -112q75 -73 114 -165t39 -193q0 -105 -38.5 -197
t-112.5 -163q-78 -75 -173 -113.5t-200 -38.5q-103 0 -198 38.5t-169 111.5q-75 74 -114 166t-39 196zM461 1092l190 272h225l-292 -272h-123z" />
    <glyph glyph-name="ograve" unicode="&#xf2;" horiz-adv-x="1204" 
d="M895 471q0 132 -85 223.5t-208 91.5q-122 0 -207.5 -91.5t-85.5 -223.5t85.5 -223.5t207.5 -91.5t207.5 91.5t85.5 223.5zM80 473q0 104 39.5 196.5t113.5 164.5q73 71 168 109t199 38q107 0 201.5 -38t169.5 -112q75 -73 114 -165t39 -193q0 -105 -38.5 -197
t-112.5 -163q-78 -75 -173 -113.5t-200 -38.5q-103 0 -198 38.5t-169 111.5q-75 74 -114 166t-39 196zM743 1092h-123l-292 272h225z" />
    <glyph glyph-name="ocircumflex" unicode="&#xf4;" horiz-adv-x="1204" 
d="M895 471q0 132 -85 223.5t-208 91.5q-122 0 -207.5 -91.5t-85.5 -223.5t85.5 -223.5t207.5 -91.5t207.5 91.5t85.5 223.5zM80 473q0 104 39.5 196.5t113.5 164.5q73 71 168 109t199 38q107 0 201.5 -38t169.5 -112q75 -73 114 -165t39 -193q0 -105 -38.5 -197
t-112.5 -163q-78 -75 -173 -113.5t-200 -38.5q-103 0 -198 38.5t-169 111.5q-75 74 -114 166t-39 196zM305 1092l193 272h208l193 -272h-123l-174 157l-174 -157h-123z" />
    <glyph glyph-name="odieresis" unicode="&#xf6;" horiz-adv-x="1204" 
d="M895 471q0 132 -85 223.5t-208 91.5q-122 0 -207.5 -91.5t-85.5 -223.5t85.5 -223.5t207.5 -91.5t207.5 91.5t85.5 223.5zM80 473q0 104 39.5 196.5t113.5 164.5q73 71 168 109t199 38q107 0 201.5 -38t169.5 -112q75 -73 114 -165t39 -193q0 -105 -38.5 -197
t-112.5 -163q-78 -75 -173 -113.5t-200 -38.5q-103 0 -198 38.5t-169 111.5q-75 74 -114 166t-39 196zM663 1255q0 48 36 83.5t85 35.5t84 -34.5t35 -84.5q0 -53 -33.5 -87.5t-85.5 -34.5q-51 0 -86 35t-35 87zM299 1255q0 48 36 83.5t85 35.5t84 -34.5t35 -84.5
q0 -53 -33.5 -87.5t-85.5 -34.5q-51 0 -86 35t-35 87z" />
    <glyph glyph-name="otilde" unicode="&#xf5;" horiz-adv-x="1204" 
d="M895 471q0 132 -85 223.5t-208 91.5q-122 0 -207.5 -91.5t-85.5 -223.5t85.5 -223.5t207.5 -91.5t207.5 91.5t85.5 223.5zM80 473q0 104 39.5 196.5t113.5 164.5q73 71 168 109t199 38q107 0 201.5 -38t169.5 -112q75 -73 114 -165t39 -193q0 -105 -38.5 -197
t-112.5 -163q-78 -75 -173 -113.5t-200 -38.5q-103 0 -198 38.5t-169 111.5q-75 74 -114 166t-39 196zM895 1341q-18 -99 -69.5 -153.5t-125.5 -54.5q-13 0 -26 1.5t-27 4.5l-124 32q-16 3 -24 4t-14 1q-35 0 -55 -16t-31 -52h-90q23 106 69.5 157.5t119.5 51.5
q15 0 30.5 -2t30.5 -6l117 -31q8 -2 18 -3t29 -1q31 0 52 17.5t30 49.5h90z" />
    <glyph glyph-name="uacute" unicode="&#xfa;" horiz-adv-x="1204" 
d="M360 948v-534q0 -138 57 -198t185 -60t185 60t57 198v534h217v-469q0 -272 -109 -395t-348 -123q-243 0 -352 122t-109 396v469h217zM461 1092l190 272h225l-292 -272h-123z" />
    <glyph glyph-name="ugrave" unicode="&#xf9;" horiz-adv-x="1204" 
d="M360 948v-534q0 -138 57 -198t185 -60t185 60t57 198v534h217v-469q0 -272 -109 -395t-348 -123q-243 0 -352 122t-109 396v469h217zM743 1092h-123l-292 272h225z" />
    <glyph glyph-name="ucircumflex" unicode="&#xfb;" horiz-adv-x="1204" 
d="M360 948v-534q0 -138 57 -198t185 -60t185 60t57 198v534h217v-469q0 -272 -109 -395t-348 -123q-243 0 -352 122t-109 396v469h217zM305 1092l193 272h208l193 -272h-123l-174 157l-174 -157h-123z" />
    <glyph glyph-name="udieresis" unicode="&#xfc;" horiz-adv-x="1204" 
d="M360 948v-534q0 -138 57 -198t185 -60t185 60t57 198v534h217v-469q0 -272 -109 -395t-348 -123q-243 0 -352 122t-109 396v469h217zM663 1255q0 48 36 83.5t85 35.5t84 -34.5t35 -84.5q0 -53 -33.5 -87.5t-85.5 -34.5q-51 0 -86 35t-35 87zM299 1255q0 48 36 83.5
t85 35.5t84 -34.5t35 -84.5q0 -53 -33.5 -87.5t-85.5 -34.5q-51 0 -86 35t-35 87z" />
    <glyph glyph-name="dagger" unicode="&#x2020;" horiz-adv-x="1090" 
d="M442 -446v1187h-358v183h358v540h205v-540h361v-183h-361v-1187h-205z" />
    <glyph glyph-name="degree" unicode="&#xb0;" horiz-adv-x="674" 
d="M338 1350q-77 0 -131.5 -54t-54.5 -131q0 -76 54.5 -131t131.5 -55t130.5 54.5t53.5 131.5t-53.5 131t-130.5 54zM338 1460q121 0 208 -87t87 -210q0 -121 -87 -208t-210 -87t-208 85.5t-85 209.5q0 125 86 211t209 86z" />
    <glyph glyph-name="cent" unicode="&#xa2;" horiz-adv-x="1237" 
d="M623 1042q-107 -18 -173.5 -99.5t-66.5 -192.5q0 -123 63.5 -203t176.5 -101v596zM993 961q-57 36 -121.5 56.5t-144.5 26.5v-598q94 15 158 38.5t108 58.5v-209q-57 -33 -123 -51t-143 -21v-203h-104v207q-195 15 -316 145t-121 324q0 196 116.5 325.5t320.5 160.5v161
h104v-157q65 -2 130.5 -16.5t135.5 -43.5v-204z" />
    <glyph glyph-name="sterling" unicode="&#xa3;" horiz-adv-x="1237" 
d="M74 49q59 89 123.5 134.5t138.5 52.5q24 48 35.5 91.5t11.5 86.5q0 41 -11.5 83t-35.5 89h-250v141h188q-44 74 -67 149t-23 150q0 200 138 326.5t360 126.5q210 0 331.5 -114t139.5 -329l-223 -30q-10 138 -75.5 209t-182.5 71q-112 0 -182 -69.5t-70 -180.5
q0 -78 74 -269q11 -27 16 -40h358v-141h-313q8 -26 12 -53t4 -56q0 -66 -25 -129t-71 -112h6q82 0 209 -45.5t178 -45.5q70 0 124 28t83 79l133 -119q-47 -85 -124.5 -130.5t-174.5 -45.5q-95 0 -256 48t-229 48q-56 0 -111 -26t-108 -78z" />
    <glyph glyph-name="section" unicode="&#xa7;" horiz-adv-x="1090" 
d="M551 281q104 0 178 74.5t74 181.5q0 106 -74 182t-178 76t-177 -75t-73 -183q0 -107 73 -181.5t177 -74.5zM154 -88h202q4 -92 50.5 -137t136.5 -45q87 0 138.5 40.5t51.5 108.5q0 95 -206 181l-42 18q-130 56 -187.5 87.5t-88.5 61.5q-64 61 -94.5 137t-30.5 175
q0 128 68 223.5t194 144.5q-90 42 -135 109.5t-45 161.5q0 149 105 235t290 86q174 0 266.5 -86.5t92.5 -249.5v-20h-187q-3 90 -50 136t-136 46q-79 0 -128.5 -40.5t-49.5 -102.5q0 -57 46.5 -97.5t209.5 -105.5q219 -88 302 -186.5t83 -260.5q0 -138 -69.5 -229
t-205.5 -131q94 -44 145.5 -119.5t51.5 -169.5q0 -154 -105.5 -244t-289.5 -90q-174 0 -278.5 94t-104.5 248v21z" />
    <glyph glyph-name="bullet" unicode="&#x2022;" horiz-adv-x="1208" 
d="M307 762q0 123 87 209t210 86q122 0 208.5 -86.5t86.5 -208.5t-87.5 -209.5t-209.5 -87.5q-123 0 -209 87t-86 210z" />
    <glyph glyph-name="paragraph" unicode="&#xb6;" 
d="M969 1479v-99h-117v-1380h-129v1380h-168v-1380h-131v784q-168 6 -268.5 101t-100.5 245q0 158 107 253.5t284 95.5h523z" />
    <glyph glyph-name="germandbls" unicode="&#xdf;" horiz-adv-x="1233" 
d="M512 193q31 -16 64.5 -23.5t70.5 -7.5q132 0 203.5 74t71.5 213q0 145 -84.5 216.5t-255.5 71.5h-35v201q6 0 17 -1t16 -1q106 0 164.5 55t58.5 156q0 112 -53 171.5t-152 59.5q-121 0 -169 -70.5t-48 -285.5v-1022h-217v743h-117v205h117v234q0 172 122.5 280.5
t319.5 108.5q193 0 308.5 -106t115.5 -281q0 -128 -68.5 -210.5t-207.5 -123.5q188 -9 291.5 -118.5t103.5 -301.5q0 -225 -120.5 -347t-344.5 -122q-53 0 -94.5 9.5t-77.5 29.5v193z" />
    <glyph glyph-name="registered" unicode="&#xae;" horiz-adv-x="1706" 
d="M729 1047v-261h117q100 0 146 30.5t46 96.5q0 69 -48 101.5t-152 32.5h-109zM551 1159h319q173 0 262 -57t89 -168q0 -91 -48 -150.5t-137 -78.5l185 -375h-199l-164 346h-129v-346h-178v829zM854 1362q-129 0 -240 -45.5t-200 -134.5q-92 -94 -141.5 -210t-49.5 -241
t47 -238.5t136 -203.5q90 -91 204 -140t234 -49q130 0 246.5 47t209.5 138q89 86 137 198.5t48 237.5q0 133 -45.5 247.5t-134.5 205.5q-93 92 -207.5 140t-243.5 48zM852 1470q153 0 288.5 -56t241.5 -165q103 -104 157 -236.5t54 -281.5q0 -153 -55.5 -287t-161.5 -237
q-108 -105 -243 -161t-281 -56q-147 0 -282.5 57.5t-241.5 165.5q-105 106 -160 239t-55 279q0 147 57.5 284t165.5 245q104 104 234.5 157t281.5 53z" />
    <glyph glyph-name="copyright" unicode="&#xa9;" horiz-adv-x="1706" 
d="M1206 903h-166q-10 74 -60 114t-130 40q-99 0 -155 -86.5t-56 -239.5q0 -152 57.5 -234.5t163.5 -82.5q80 0 129 43.5t60 124.5h165q-7 -135 -106.5 -217t-253.5 -82q-183 0 -290 119t-107 323q0 208 109.5 331.5t291.5 123.5q147 0 243 -77t105 -200zM854 1362
q-130 0 -243 -46.5t-201 -135.5q-90 -92 -138.5 -208t-48.5 -241q0 -126 48 -240t139 -204q90 -91 204.5 -139t239.5 -48t240 48.5t209 140.5q89 88 135.5 200.5t46.5 241.5t-47 243.5t-135 203.5q-91 90 -205 137t-244 47zM852 1470q152 0 286 -55t240 -162
q105 -105 160 -238.5t55 -283.5q0 -153 -54.5 -286t-158.5 -234q-108 -107 -244.5 -164t-283.5 -57q-146 0 -280 56.5t-240 162.5q-107 106 -163 240.5t-56 281.5q0 145 57 280.5t164 243.5q105 107 235.5 161t282.5 54z" />
    <glyph glyph-name="trademark" unicode="&#x2122;" horiz-adv-x="1706" 
d="M809 1460h170l141 -360l133 360h170v-542h-114v428l-160 -428h-59l-166 428v-428h-115v542zM225 1460h467v-94h-168v-448h-129v448h-170v94z" />
    <glyph glyph-name="acute" unicode="&#xb4;" 
d="M371 1092l190 272h225l-292 -272h-123z" />
    <glyph glyph-name="dieresis" unicode="&#xa8;" 
d="M573 1255q0 48 36 83.5t85 35.5t84 -34.5t35 -84.5q0 -53 -33.5 -87.5t-85.5 -34.5q-51 0 -86 35t-35 87zM209 1255q0 48 36 83.5t85 35.5t84 -34.5t35 -84.5q0 -53 -33.5 -87.5t-85.5 -34.5q-51 0 -86 35t-35 87z" />
    <glyph glyph-name="notequal" unicode="&#x2260;" horiz-adv-x="1706" 
d="M1204 1212l123 -100l-170 -215h295v-162h-403l-197 -250h600v-161h-707l-249 -314l-123 99l170 215h-289v161h393l199 250h-592v162h700z" />
    <glyph glyph-name="AE" unicode="&#xc6;" horiz-adv-x="1866" 
d="M477 575h422l-123 334q-25 67 -42.5 127t-28.5 117q-11 -53 -29.5 -108.5t-44.5 -114.5zM1329 1464l84 -202h-536l129 -359h491l78 -209h-490l179 -481h538l80 -213h-772l-139 377h-582l-170 -377h-250l684 1464h676z" />
    <glyph glyph-name="Oslash" unicode="&#xd8;" horiz-adv-x="1774" 
d="M233 -74l-124 109l184 196q-96 108 -142.5 231t-46.5 269q0 157 58.5 296t169.5 247q110 109 253.5 167t301.5 58q116 0 228 -35.5t226 -109.5l172 184l129 -104l-176 -189q103 -114 153 -240t50 -274q0 -156 -59 -295t-170 -248q-111 -107 -254 -165t-299 -58
q-131 0 -248.5 38.5t-224.5 117.5zM571 289q67 -53 141.5 -79t159.5 -26q119 0 217 40t177 120q76 78 115.5 177t39.5 210q0 95 -30 181.5t-88 160.5zM1184 1186q-68 48 -140.5 71t-156.5 23q-108 0 -206.5 -41.5t-172.5 -118.5q-76 -77 -116 -177t-40 -212q0 -94 25.5 -173
t79.5 -150z" />
    <glyph glyph-name="infinity" unicode="&#x221e;" horiz-adv-x="1706" 
d="M928 559q45 -81 109.5 -122.5t146.5 -41.5q97 0 159 61.5t62 157.5q0 95 -57 158.5t-142 63.5q-78 0 -142 -63.5t-136 -213.5zM780 662q-46 81 -111 123t-145 42q-98 0 -159.5 -62t-61.5 -159q0 -94 56.5 -156.5t140.5 -62.5q80 0 144.5 62.5t135.5 212.5zM862 471
q-71 -135 -148.5 -197.5t-172.5 -62.5q-137 0 -232.5 114.5t-95.5 284.5q0 179 85 289.5t220 110.5q93 0 168.5 -60t157.5 -200q71 139 149.5 200.5t184.5 61.5q127 0 222 -116t95 -284q0 -178 -84.5 -288.5t-220.5 -110.5q-92 0 -166.5 57.5t-161.5 200.5z" />
    <glyph glyph-name="plusminus" unicode="&#xb1;" horiz-adv-x="1706" 
d="M254 182h1198v-168h-1198v168zM768 1206h170v-334h514v-165h-514v-334h-170v334h-514v165h514v334z" />
    <glyph glyph-name="lessequal" unicode="&#x2264;" horiz-adv-x="1706" 
d="M260 178h1186v-166h-1186v166zM1446 1223v-176l-889 -287l889 -287v-176l-1186 389v145z" />
    <glyph glyph-name="greaterequal" unicode="&#x2265;" horiz-adv-x="1706" 
d="M260 178h1188v-166h-1188v166zM260 1223l1186 -392v-145l-1186 -389v176l891 287l-891 287v176z" />
    <glyph glyph-name="yen" unicode="&#xa5;" horiz-adv-x="1237" 
d="M492 0v578h-482v145h445l-101 164h-344v145h256l-266 420h240l307 -494q11 -17 27.5 -49.5t33.5 -70.5q13 34 28.5 66t33.5 61l315 487h229l-266 -420h256v-145h-350l-102 -164h452v-145h-493v-578h-219z" />
    <glyph glyph-name="mu" unicode="&#xb5;" horiz-adv-x="1208" 
d="M205 1081h229l-125 -635q-6 -29 -9 -55t-3 -49q0 -96 46.5 -146.5t135.5 -50.5q122 0 193.5 88.5t111.5 292.5l109 555h225l-145 -739q-10 -49 -14.5 -81.5t-4.5 -51.5q0 -36 15.5 -51t52.5 -15q13 0 20.5 0.5t13.5 1.5l-32 -159q-32 -9 -68.5 -13t-81.5 -4
q-74 0 -111.5 31.5t-37.5 93.5v15q-41 -67 -108 -104.5t-146 -37.5q-81 0 -137.5 26t-97.5 83l-99 -506h-229z" />
    <glyph glyph-name="partialdiff" unicode="&#x2202;" horiz-adv-x="1075" 
d="M758 639q17 103 26 186.5t9 147.5q0 120 -29 174.5t-92 54.5q-62 0 -147 -58.5t-122 -58.5t-64.5 26t-27.5 60q0 66 79 115t200 49q176 0 287.5 -159t111.5 -422q0 -338 -150 -558.5t-376 -220.5q-161 0 -266 112t-105 286q0 193 113 322.5t278 129.5q101 0 167.5 -45
t107.5 -141zM705 504q0 116 -41 178.5t-117 62.5q-105 0 -174.5 -131.5t-69.5 -337.5q0 -116 40.5 -177.5t117.5 -61.5q105 0 174.5 132.5t69.5 334.5z" />
    <glyph glyph-name="summation" unicode="&#x2211;" horiz-adv-x="1421" 
d="M61 1473h1280v-226h-921l647 -684l-661 -729h974v-227h-1347v160l712 786l-684 719v201z" />
    <glyph glyph-name="product" unicode="&#x220f;" horiz-adv-x="1579" 
d="M154 1473h1267v-1866h-286v1622h-695v-1622h-286v1866z" />
    <glyph glyph-name="pi" unicode="&#x3c0;" horiz-adv-x="1368" 
d="M360 889h-45q-54 0 -83.5 -31.5t-39.5 -99.5h-174q28 187 100 255t242 68h953l-39 -192h-193l-84 -437q-2 -13 -8 -41q-22 -113 -22 -147q0 -58 23 -82t77 -24q18 0 42.5 2.5t59.5 7.5l-34 -168q-29 -8 -61 -12t-75 -4q-139 0 -202.5 48t-63.5 154q0 77 52 344l1 6
l70 353h-268l-174 -889h-226z" />
    <glyph glyph-name="integral" unicode="&#x222b;" horiz-adv-x="1120" 
d="M324 -258q106 0 122 692q2 81 3 123q13 538 113 766.5t312 228.5q87 0 143 -45.5t56 -111.5q0 -61 -34 -95t-95 -34q-45 0 -74.5 22.5t-40.5 65.5q-4 17 -6 45q-3 40 -26 41q-101 0 -119 -615q-5 -161 -8 -249q-10 -280 -30.5 -427t-59.5 -245q-55 -136 -139.5 -205.5
t-194.5 -69.5q-87 0 -142 44t-55 112q0 63 35.5 97t99.5 34q39 0 66 -18t41 -54q6 -16 9 -59t24 -43z" />
    <glyph glyph-name="ordfeminine" unicode="&#xaa;" horiz-adv-x="895" 
d="M782 801h-164v86q-42 -57 -100.5 -85t-132.5 -28q-151 0 -238.5 96t-87.5 263q0 158 89 256t231 98q87 0 149.5 -34t89.5 -97v108h164v-663zM625 1135q0 103 -52 161t-145 58q-92 0 -144.5 -60t-52.5 -166q0 -105 51 -162t144 -57q88 0 143.5 62.5t55.5 163.5z" />
    <glyph glyph-name="ordmasculine" unicode="&#xba;" horiz-adv-x="903" 
d="M672 1130q0 93 -64 157.5t-155 64.5q-93 0 -157.5 -64t-64.5 -158q0 -93 64.5 -157t157.5 -64q90 0 154.5 64.5t64.5 156.5zM59 1133q0 72 30 136.5t87 114.5q54 50 125 76.5t150 26.5q81 0 151.5 -26.5t126.5 -78.5q56 -51 85.5 -114.5t29.5 -134.5q0 -74 -29 -138
t-86 -114q-57 -53 -128 -80t-150 -27q-78 0 -149 27t-126 78q-57 51 -87 115.5t-30 138.5z" />
    <glyph glyph-name="Omega" unicode="&#x3a9;" horiz-adv-x="1569" 
d="M1194 213h305v-213h-602v229q160 94 242 244.5t82 351.5q0 210 -121 341.5t-316 131.5q-197 0 -316.5 -132.5t-119.5 -352.5q0 -191 84 -342t240 -242v-229h-602v213h305q-144 130 -211.5 274t-67.5 322q0 314 190.5 508t497.5 194q303 0 496 -192.5t193 -493.5
q0 -190 -65.5 -333t-213.5 -279z" />
    <glyph glyph-name="ae" unicode="&#xe6;" horiz-adv-x="1765" 
d="M1456 588q-12 102 -76.5 155.5t-177.5 53.5q-107 0 -172.5 -52t-91.5 -157h518zM1681 442h-757q7 -134 78.5 -210t189.5 -76q103 0 173.5 45t123.5 145l182 -102q-80 -144 -197 -213.5t-278 -69.5q-120 0 -206 38t-148 118q-67 -75 -169 -115.5t-224 -40.5
q-173 0 -276 91t-103 241q0 142 102 228.5t268 86.5q87 0 156.5 -17t128.5 -52q1 6 1.5 13.5t0.5 22.5q0 109 -70.5 165.5t-205.5 56.5q-72 0 -148 -25t-149 -72v203q70 40 145.5 60t159.5 20q143 0 232 -39.5t151 -128.5q61 83 151 125.5t203 42.5q230 0 357.5 -132.5
t127.5 -371.5v-37zM735 299q0 65 -59 104t-160 39q-103 0 -162 -39t-59 -106q0 -66 53.5 -103.5t147.5 -37.5q112 0 175.5 38t63.5 105z" />
    <glyph glyph-name="oslash" unicode="&#xf8;" horiz-adv-x="1204" 
d="M424 217q38 -29 80 -43t90 -14q130 0 215.5 86.5t85.5 218.5q0 43 -11 85t-34 85zM778 723q-37 32 -77.5 47.5t-88.5 15.5q-131 0 -219 -89t-88 -222q0 -42 11 -84t34 -86zM150 -53l-80 82l125 127q-58 74 -85.5 151t-27.5 162q0 223 149.5 368.5t376.5 145.5
q94 0 174 -28.5t144 -84.5l125 127l84 -79l-127 -130q58 -75 86 -152t28 -163q0 -219 -151 -365.5t-377 -146.5q-92 0 -171.5 28t-141.5 83z" />
    <glyph glyph-name="questiondown" unicode="&#xbf;" horiz-adv-x="1114" 
d="M725 344h172q0 -6 1 -18.5t1 -18.5q0 -158 -94.5 -252t-253.5 -94q-163 0 -260.5 94t-97.5 250q0 114 56.5 188t225.5 156l20 10q199 99 199 187q0 51 -39 88t-94 37q-67 0 -103.5 -40.5t-38.5 -115.5h-177v21q0 148 83 228.5t236 80.5q142 0 234 -83.5t92 -211.5
q0 -118 -63.5 -196t-248.5 -167q-122 -57 -157 -96t-35 -94q0 -67 47.5 -110.5t120.5 -43.5q82 0 128 53.5t46 147.5zM711 1368q0 -54 -39 -92.5t-92 -38.5q-56 0 -93.5 38t-37.5 93q0 54 38 91.5t93 37.5t93 -37.5t38 -91.5z" />
    <glyph glyph-name="exclamdown" unicode="&#xa1;" horiz-adv-x="674" 
d="M223 -39v1163h228v-1163h-228zM205 1368q0 54 38 91.5t93 37.5t93 -37.5t38 -91.5q0 -55 -38 -93t-93 -38q-54 0 -92.5 38.5t-38.5 92.5z" />
    <glyph glyph-name="logicalnot" unicode="&#xac;" horiz-adv-x="1706" 
d="M254 862h1198v-502h-166v336h-1032v166z" />
    <glyph glyph-name="radical" unicode="&#x221a;" horiz-adv-x="1323" 
d="M1128 1675h197v-110h-108l-594 -1606h-82l-316 872l-131 -49l-28 95l305 108l247 -688z" />
    <glyph glyph-name="florin" unicode="&#x192;" horiz-adv-x="1237" 
d="M725 782l-96 -757q-35 -279 -107 -376.5t-227 -97.5q-36 0 -75 6.5t-83 18.5l41 202q27 -10 48.5 -16t35.5 -6q68 0 99 51t59 279l84 696h-209l14 166h211l21 154q26 196 101 287.5t210 91.5q43 0 87.5 -8.5t94.5 -26.5l-18 -189q-34 14 -63 20.5t-52 6.5
q-64 0 -94.5 -43.5t-50.5 -183.5l-15 -109h232l-17 -166h-231z" />
    <glyph glyph-name="approxequal" unicode="&#x2248;" horiz-adv-x="1706" 
d="M1530 592v-186q-107 -73 -200 -106.5t-189 -33.5q-89 0 -279.5 66.5t-298.5 66.5q-84 0 -173.5 -36t-211.5 -121v184q112 75 206.5 110t180.5 35q118 0 309 -67.5t277 -67.5q83 0 172 36.5t207 119.5zM1530 979v-184q-109 -75 -201.5 -108.5t-187.5 -33.5
q-88 0 -278.5 67.5t-299.5 67.5q-82 0 -170 -35t-215 -122v184q109 73 205 109.5t182 36.5q120 0 310 -68t268 -68q92 0 181 35t206 119z" />
    <glyph glyph-name="Delta" unicode="&#x2206;" horiz-adv-x="1395" 
d="M698 1196l-379 -983h756zM569 1473h256l574 -1473h-1403z" />
    <glyph glyph-name="guillemotleft" unicode="&#xab;" horiz-adv-x="930" 
d="M713 877l139 -84l-207 -324l207 -324l-139 -84l-254 408zM334 877l137 -84l-205 -324l205 -324l-137 -84l-254 408z" />
    <glyph glyph-name="guillemotright" unicode="&#xbb;" horiz-adv-x="930" 
d="M598 61l-139 84l207 324l-207 324l139 84l254 -408zM219 61l-137 84l205 324l-205 324l137 84l254 -408z" />
    <glyph glyph-name="ellipsis" unicode="&#x2026;" horiz-adv-x="2048" 
d="M211 111q0 55 38 94t93 39t93 -39t38 -94q0 -54 -38 -91.5t-93 -37.5t-93 37.5t-38 91.5zM893 111q0 55 38 94t93 39t93 -39t38 -94q0 -54 -38 -91.5t-93 -37.5t-93 37.5t-38 91.5zM1577 111q0 55 38 94t93 39t93 -39t38 -94q0 -54 -38 -91.5t-93 -37.5t-93 37.5
t-38 91.5z" />
    <glyph glyph-name="nonbreakingspace" unicode="&#xa0;" horiz-adv-x="1237" 
 />
    <glyph glyph-name="Agrave" unicode="&#xc0;" horiz-adv-x="1356" 
d="M477 575h408l-150 334q-13 32 -27 73.5t-28 92.5q-12 -48 -25.5 -89.5t-27.5 -76.5zM1135 0l-166 377h-580l-170 -377h-250l709 1522l708 -1522h-251zM819 1608h-123l-292 272h225z" />
    <glyph glyph-name="Atilde" unicode="&#xc3;" horiz-adv-x="1356" 
d="M477 575h408l-150 334q-13 32 -27 73.5t-28 92.5q-12 -48 -25.5 -89.5t-27.5 -76.5zM1135 0l-166 377h-580l-170 -377h-250l709 1522l708 -1522h-251zM971 1857q-18 -99 -69.5 -153.5t-125.5 -54.5q-13 0 -26 1.5t-27 4.5l-124 32q-16 3 -24 4t-14 1q-35 0 -55 -16
t-31 -52h-90q23 106 69.5 157.5t119.5 51.5q15 0 30.5 -2t30.5 -6l117 -31q8 -2 18 -3t29 -1q31 0 52 17.5t30 49.5h90z" />
    <glyph glyph-name="Otilde" unicode="&#xd5;" horiz-adv-x="1774" 
d="M1421 729q0 111 -40.5 211t-116.5 178q-74 77 -171.5 118.5t-205.5 41.5t-205.5 -41t-173.5 -119q-76 -77 -116 -177t-40 -212q0 -111 40 -210t116 -177t173 -119t206 -41q107 0 203.5 41t173.5 119q76 78 116.5 177.5t40.5 209.5zM1669 729q0 -156 -58.5 -295
t-170.5 -248q-113 -109 -255 -167t-298 -58q-158 0 -301.5 58.5t-253.5 166.5q-112 109 -170 247t-58 296q0 157 58 296t170 249q112 109 254 166t301 57q158 0 299.5 -57t253.5 -166q112 -111 170.5 -250.5t58.5 -294.5zM1180 1857q-18 -99 -69.5 -153.5t-125.5 -54.5
q-13 0 -26 1.5t-27 4.5l-124 32q-16 3 -24 4t-14 1q-35 0 -55 -16t-31 -52h-90q23 106 69.5 157.5t119.5 51.5q15 0 30.5 -2t30.5 -6l117 -31q8 -2 18 -3t29 -1q31 0 52 17.5t30 49.5h90z" />
    <glyph glyph-name="OE" unicode="&#x152;" horiz-adv-x="2304" 
d="M1401 731q0 112 -39.5 211.5t-114.5 177.5q-74 77 -170 118.5t-200 41.5q-106 0 -201.5 -41t-169.5 -119q-75 -78 -114.5 -177.5t-39.5 -211.5q0 -111 39.5 -210t114.5 -177q74 -78 169.5 -119t201.5 -41q105 0 200.5 41t169.5 119q75 78 114.5 177t39.5 210zM1407 1464
h788v-202h-569v-361h569v-209h-569v-479h569v-213h-788l-2 225q-94 -126 -230 -193t-298 -67q-156 0 -295 57.5t-248 165.5q-110 110 -167.5 249t-57.5 294t57.5 294t167.5 249q109 109 248.5 167t294.5 58q159 0 291 -63t237 -189z" />
    <glyph glyph-name="oe" unicode="&#x153;" horiz-adv-x="1944" 
d="M1636 588q-12 102 -76.5 155.5t-177.5 53.5q-106 0 -172 -52t-92 -157h518zM993 147q-86 -95 -180.5 -140.5t-206.5 -45.5q-71 0 -138 17.5t-126 52.5q-126 72 -194 187t-68 255q0 101 38.5 192.5t110.5 163.5q76 74 174 113t209 39q124 0 223.5 -51.5t165.5 -149.5
q64 102 156.5 151.5t218.5 49.5q230 0 358 -131t128 -367v-41h-758q8 -134 79 -210t189 -76q103 0 173.5 45t123.5 145l182 -102q-79 -143 -197 -213t-278 -70q-128 0 -220 45t-163 141zM895 471q0 132 -86 223.5t-209 91.5q-122 0 -207.5 -91.5t-85.5 -223.5t85.5 -223.5
t207.5 -91.5t208.5 91.5t86.5 223.5z" />
    <glyph glyph-name="endash" unicode="&#x2013;" 
d="M0 545h1024v-146h-1024v146z" />
    <glyph glyph-name="emdash" unicode="&#x2014;" horiz-adv-x="2048" 
d="M0 399v146h2048v-146h-2048z" />
    <glyph glyph-name="quotedblleft" unicode="&#x201c;" horiz-adv-x="905" 
d="M457 1452l-189 -545l-184 62l246 528zM821 1452l-190 -545l-182 62l245 528z" />
    <glyph glyph-name="quotedblright" unicode="&#x201d;" horiz-adv-x="905" 
d="M84 954l190 543l183 -59l-246 -531zM449 954l190 543l182 -59l-246 -531z" />
    <glyph glyph-name="quoteleft" unicode="&#x2018;" horiz-adv-x="618" 
d="M496 1452l-191 -545l-182 62l246 528z" />
    <glyph glyph-name="quoteright" unicode="&#x2019;" horiz-adv-x="618" 
d="M123 954l190 543l183 -59l-246 -531z" />
    <glyph glyph-name="divide" unicode="&#xf7;" horiz-adv-x="1706" 
d="M854 367q57 0 97 -40.5t40 -97.5q0 -56 -39.5 -95.5t-97.5 -39.5t-97.5 39t-39.5 96t40.5 97.5t96.5 40.5zM254 694h1198v-166h-1198v166zM854 1128q57 0 97 -41t40 -98q0 -56 -39.5 -95.5t-97.5 -39.5t-97.5 39t-39.5 96t40.5 98t96.5 41z" />
    <glyph glyph-name="lozenge" unicode="&#x25ca;" horiz-adv-x="1012" 
d="M506 1409l-385 -817l385 -825l385 825zM506 1653l500 -1061l-500 -1069l-500 1069z" />
    <glyph glyph-name="ydieresis" unicode="&#xff;" horiz-adv-x="965" 
d="M313 -446h-223l260 528l-348 866h240l174 -491q15 -45 26.5 -91.5t18.5 -94.5q13 50 62 159l5 12l234 506h235zM544 1255q0 48 36 83.5t85 35.5t84 -34.5t35 -84.5q0 -53 -33.5 -87.5t-85.5 -34.5q-51 0 -86 35t-35 87zM180 1255q0 48 36 83.5t85 35.5t84 -34.5t35 -84.5
q0 -53 -33.5 -87.5t-85.5 -34.5q-51 0 -86 35t-35 87z" />
    <glyph glyph-name="Ydieresis" unicode="&#x178;" horiz-adv-x="1214" 
d="M483 0v670l-493 794h250l307 -497q11 -19 27.5 -50t33.5 -67q14 35 29.5 66t32.5 57l315 491h238l-504 -794v-670h-236zM669 1771q0 48 36 83.5t85 35.5t84 -34.5t35 -84.5q0 -53 -33.5 -87.5t-85.5 -34.5q-51 0 -86 35t-35 87zM305 1771q0 48 36 83.5t85 35.5t84 -34.5
t35 -84.5q0 -53 -33.5 -87.5t-85.5 -34.5q-51 0 -86 35t-35 87z" />
    <glyph glyph-name="fraction" unicode="&#x2215;" horiz-adv-x="342" 
d="M-342 -39l887 1518h137l-887 -1518h-137z" />
    <glyph glyph-name="currency" unicode="&#xa4;" horiz-adv-x="1237" 
d="M1159 324l-8 -244q-82 -59 -175 -89t-194 -30q-236 0 -402.5 157t-211.5 425h-168l25 110h132q0 13 -0.5 27t-0.5 41q0 14 2 55q1 16 2 25h-160l25 112h147q47 261 215.5 413.5t409.5 152.5q97 0 184.5 -32.5t169.5 -98.5v-242q-69 81 -155 123.5t-181 42.5
q-150 0 -259.5 -98t-139.5 -261h583l-34 -112h-568q-2 -34 -3 -57.5t-1 -43.5v-12q0 -7 0.5 -15.5t1.5 -19.5h523l-37 -110h-471q31 -173 137.5 -274t255.5 -101q94 0 181.5 38t174.5 118z" />
    <glyph glyph-name="guilsinglleft" unicode="&#x2039;" horiz-adv-x="627" 
d="M334 877l139 -84l-207 -324l207 -324l-139 -84l-254 408z" />
    <glyph glyph-name="guilsinglright" unicode="&#x203a;" horiz-adv-x="545" 
d="M219 61l-139 84l207 324l-207 324l139 84l254 -408z" />
    <glyph glyph-name="fi" unicode="&#xf001;" horiz-adv-x="1151" 
d="M748 1358q0 55 40 95t97 40t96 -38.5t39 -96.5t-39 -97.5t-96 -39.5t-97 40.5t-40 96.5zM774 0v948h219v-948h-219zM180 0v758h-166v190h166v254q0 189 78.5 279t243.5 90q35 0 72 -5t75 -16v-196q-26 15 -52.5 22.5t-53.5 7.5q-78 0 -112 -48t-34 -162v-226h228v-190
h-228v-758h-217z" />
    <glyph glyph-name="fi" unicode="&#xfb01;" horiz-adv-x="1151" 
d="M748 1358q0 55 40 95t97 40t96 -38.5t39 -96.5t-39 -97.5t-96 -39.5t-97 40.5t-40 96.5zM774 0v948h219v-948h-219zM180 0v758h-166v190h166v254q0 189 78.5 279t243.5 90q35 0 72 -5t75 -16v-196q-26 15 -52.5 22.5t-53.5 7.5q-78 0 -112 -48t-34 -162v-226h228v-190
h-228v-758h-217z" />
    <glyph glyph-name="fl" unicode="&#xf002;" horiz-adv-x="1151" 
d="M774 0v1550h219v-1550h-219zM180 0v758h-166v190h166v254q0 189 78.5 279t243.5 90q35 0 72 -5t75 -16v-196q-26 15 -52.5 22.5t-53.5 7.5q-78 0 -112 -48t-34 -162v-226h228v-190h-228v-758h-217z" />
    <glyph glyph-name="fl" unicode="&#xfb02;" horiz-adv-x="1151" 
d="M774 0v1550h219v-1550h-219zM180 0v758h-166v190h166v254q0 189 78.5 279t243.5 90q35 0 72 -5t75 -16v-196q-26 15 -52.5 22.5t-53.5 7.5q-78 0 -112 -48t-34 -162v-226h228v-190h-228v-758h-217z" />
    <glyph glyph-name="daggerdbl" unicode="&#x2021;" horiz-adv-x="1090" 
d="M442 -446v491h-360v180h360v652h-360v180h360v407h205v-407h361v-180h-361v-652h361v-180h-361v-491h-205z" />
    <glyph glyph-name="periodcentered" unicode="&#xb7;" horiz-adv-x="618" 
d="M178 721q0 55 38 93t93 38q56 0 93.5 -38t37.5 -93q0 -54 -38 -92.5t-93 -38.5q-54 0 -92.5 38.5t-38.5 92.5z" />
    <glyph glyph-name="quotesinglbase" unicode="&#x201a;" horiz-adv-x="618" 
d="M123 -299l190 545l183 -60l-246 -530z" />
    <glyph glyph-name="quotedblbase" unicode="&#x201e;" horiz-adv-x="905" 
d="M84 -299l190 545l183 -60l-246 -530zM449 -299l190 545l182 -60l-246 -530z" />
    <glyph glyph-name="perthousand" unicode="&#x2030;" horiz-adv-x="2394" 
d="M2007 80q75 0 112.5 67t37.5 201q0 129 -38 197.5t-108 68.5q-74 0 -111.5 -67.5t-37.5 -200.5q0 -128 37.5 -197t107.5 -69zM1683 348q0 182 87 283.5t241 101.5q155 0 240.5 -100.5t85.5 -284.5q0 -182 -87 -284.5t-241 -102.5t-240 102t-86 285zM913 348
q0 182 87 283.5t241 101.5q155 0 240.5 -100.5t85.5 -284.5q0 -182 -87 -284.5t-241 -102.5t-240 102t-86 285zM1237 80q75 0 112 67t37 201q0 129 -37.5 197.5t-107.5 68.5q-74 0 -111.5 -67.5t-37.5 -200.5q0 -128 37.5 -197t107.5 -69zM383 825q74 0 110.5 67t36.5 202
q0 130 -37 199t-106 69q-74 0 -111.5 -68.5t-37.5 -201.5q0 -129 37.5 -198t107.5 -69zM57 1094q0 181 87 283t241 102q155 0 240.5 -100.5t85.5 -284.5q0 -183 -86 -284t-240 -101q-155 0 -241.5 101t-86.5 284zM455 -39h-138l854 1518h138z" />
    <glyph glyph-name="Acircumflex" unicode="&#xc2;" horiz-adv-x="1356" 
d="M477 575h408l-150 334q-13 32 -27 73.5t-28 92.5q-12 -48 -25.5 -89.5t-27.5 -76.5zM1135 0l-166 377h-580l-170 -377h-250l709 1522l708 -1522h-251zM381 1608l193 272h208l193 -272h-123l-174 157l-174 -157h-123z" />
    <glyph glyph-name="Ecircumflex" unicode="&#xca;" horiz-adv-x="1090" 
d="M168 0v1464h817v-202h-579v-367h579v-209h-579v-473h579v-213h-817zM283 1608l193 272h208l193 -272h-123l-174 157l-174 -157h-123z" />
    <glyph glyph-name="Aacute" unicode="&#xc1;" horiz-adv-x="1356" 
d="M477 575h408l-150 334q-13 32 -27 73.5t-28 92.5q-12 -48 -25.5 -89.5t-27.5 -76.5zM1135 0l-166 377h-580l-170 -377h-250l709 1522l708 -1522h-251zM537 1608l190 272h225l-292 -272h-123z" />
    <glyph glyph-name="Edieresis" unicode="&#xcb;" horiz-adv-x="1090" 
d="M168 0v1464h817v-202h-579v-367h579v-209h-579v-473h579v-213h-817zM641 1771q0 48 36 83.5t85 35.5t84 -34.5t35 -84.5q0 -53 -33.5 -87.5t-85.5 -34.5q-51 0 -86 35t-35 87zM277 1771q0 48 36 83.5t85 35.5t84 -34.5t35 -84.5q0 -53 -33.5 -87.5t-85.5 -34.5
q-51 0 -86 35t-35 87z" />
    <glyph glyph-name="Egrave" unicode="&#xc8;" horiz-adv-x="1090" 
d="M168 0v1464h817v-202h-579v-367h579v-209h-579v-473h579v-213h-817zM721 1608h-123l-292 272h225z" />
    <glyph glyph-name="Iacute" unicode="&#xcd;" horiz-adv-x="584" 
d="M172 0v1464h238v-1464h-238zM152 1608l190 272h225l-292 -272h-123z" />
    <glyph glyph-name="Icircumflex" unicode="&#xce;" horiz-adv-x="584" 
d="M172 0v1464h238v-1464h-238zM-4 1608l193 272h208l193 -272h-123l-174 157l-174 -157h-123z" />
    <glyph glyph-name="Idieresis" unicode="&#xcf;" horiz-adv-x="584" 
d="M172 0v1464h238v-1464h-238zM354 1771q0 48 36 83.5t85 35.5t84 -34.5t35 -84.5q0 -53 -33.5 -87.5t-85.5 -34.5q-51 0 -86 35t-35 87zM-10 1771q0 48 36 83.5t85 35.5t84 -34.5t35 -84.5q0 -53 -33.5 -87.5t-85.5 -34.5q-51 0 -86 35t-35 87z" />
    <glyph glyph-name="Igrave" unicode="&#xcc;" horiz-adv-x="584" 
d="M172 0v1464h238v-1464h-238zM434 1608h-123l-292 272h225z" />
    <glyph glyph-name="Oacute" unicode="&#xd3;" horiz-adv-x="1774" 
d="M1421 729q0 111 -40.5 211t-116.5 178q-74 77 -171.5 118.5t-205.5 41.5t-205.5 -41t-173.5 -119q-76 -77 -116 -177t-40 -212q0 -111 40 -210t116 -177t173 -119t206 -41q107 0 203.5 41t173.5 119q76 78 116.5 177.5t40.5 209.5zM1669 729q0 -156 -58.5 -295
t-170.5 -248q-113 -109 -255 -167t-298 -58q-158 0 -301.5 58.5t-253.5 166.5q-112 109 -170 247t-58 296q0 157 58 296t170 249q112 109 254 166t301 57q158 0 299.5 -57t253.5 -166q112 -111 170.5 -250.5t58.5 -294.5zM746 1608l190 272h225l-292 -272h-123z" />
    <glyph glyph-name="Ocircumflex" unicode="&#xd4;" horiz-adv-x="1774" 
d="M1421 729q0 111 -40.5 211t-116.5 178q-74 77 -171.5 118.5t-205.5 41.5t-205.5 -41t-173.5 -119q-76 -77 -116 -177t-40 -212q0 -111 40 -210t116 -177t173 -119t206 -41q107 0 203.5 41t173.5 119q76 78 116.5 177.5t40.5 209.5zM1669 729q0 -156 -58.5 -295
t-170.5 -248q-113 -109 -255 -167t-298 -58q-158 0 -301.5 58.5t-253.5 166.5q-112 109 -170 247t-58 296q0 157 58 296t170 249q112 109 254 166t301 57q158 0 299.5 -57t253.5 -166q112 -111 170.5 -250.5t58.5 -294.5zM590 1608l193 272h208l193 -272h-123l-174 157
l-174 -157h-123z" />
    <glyph glyph-name="apple" unicode="&#xf000;" horiz-adv-x="1618" 
d="M836 1216q-1 6 -1.5 14t-0.5 23q0 124 95 229.5t236 131.5q1 -10 1.5 -23t0.5 -39q0 -131 -103.5 -234.5t-203.5 -103.5h-8q-3 0 -7.5 1t-8.5 1zM1505 403q-114 -247 -205 -342.5t-204 -95.5q-50 0 -131.5 33t-122.5 33q-45 0 -131 -33t-127 -33q-64 0 -128.5 44
t-129.5 132q-102 140 -157.5 295.5t-55.5 300.5q0 219 125 356.5t323 137.5q68 0 155 -34t124 -34q34 0 121.5 35t152.5 35q110 0 198 -40t161 -124q-102 -65 -151.5 -145.5t-49.5 -182.5q0 -113 60 -200t173 -138z" />
    <glyph glyph-name="Ograve" unicode="&#xd2;" horiz-adv-x="1774" 
d="M1421 729q0 111 -40.5 211t-116.5 178q-74 77 -171.5 118.5t-205.5 41.5t-205.5 -41t-173.5 -119q-76 -77 -116 -177t-40 -212q0 -111 40 -210t116 -177t173 -119t206 -41q107 0 203.5 41t173.5 119q76 78 116.5 177.5t40.5 209.5zM1669 729q0 -156 -58.5 -295
t-170.5 -248q-113 -109 -255 -167t-298 -58q-158 0 -301.5 58.5t-253.5 166.5q-112 109 -170 247t-58 296q0 157 58 296t170 249q112 109 254 166t301 57q158 0 299.5 -57t253.5 -166q112 -111 170.5 -250.5t58.5 -294.5zM1028 1608h-123l-292 272h225z" />
    <glyph glyph-name="Uacute" unicode="&#xda;" horiz-adv-x="1524" 
d="M162 1464h235v-889q0 -198 91.5 -297.5t273.5 -99.5q181 0 272.5 99.5t91.5 297.5v889h238v-911q0 -297 -150 -444.5t-452 -147.5t-451 147t-149 445v911zM621 1608l190 272h225l-292 -272h-123z" />
    <glyph glyph-name="Ucircumflex" unicode="&#xdb;" horiz-adv-x="1524" 
d="M162 1464h235v-889q0 -198 91.5 -297.5t273.5 -99.5q181 0 272.5 99.5t91.5 297.5v889h238v-911q0 -297 -150 -444.5t-452 -147.5t-451 147t-149 445v911zM465 1608l193 272h208l193 -272h-123l-174 157l-174 -157h-123z" />
    <glyph glyph-name="Ugrave" unicode="&#xd9;" horiz-adv-x="1524" 
d="M162 1464h235v-889q0 -198 91.5 -297.5t273.5 -99.5q181 0 272.5 99.5t91.5 297.5v889h238v-911q0 -297 -150 -444.5t-452 -147.5t-451 147t-149 445v911zM903 1608h-123l-292 272h225z" />
    <glyph glyph-name="dotlessi" unicode="&#x131;" horiz-adv-x="537" 
d="M160 0v948h217v-948h-217z" />
    <glyph glyph-name="circumflex" unicode="&#x2c6;" 
d="M215 1092l193 272h208l193 -272h-123l-174 157l-174 -157h-123z" />
    <glyph glyph-name="tilde" unicode="&#x2dc;" 
d="M805 1341q-18 -99 -69.5 -153.5t-125.5 -54.5q-13 0 -26 1.5t-27 4.5l-124 32q-16 3 -24 4t-14 1q-35 0 -55 -16t-31 -52h-90q23 106 69.5 157.5t119.5 51.5q15 0 30.5 -2t30.5 -6l117 -31q8 -2 18 -3t29 -1q31 0 52 17.5t30 49.5h90z" />
    <glyph glyph-name="macron" unicode="&#xaf;" 
d="M248 1153v141h526v-141h-526z" />
    <glyph glyph-name="breve" unicode="&#x2d8;" 
d="M213 1360l121 -1q9 -64 52 -94t126 -30q82 0 124.5 30t51.5 94l119 1q-16 -138 -86.5 -201t-208.5 -63q-139 0 -211.5 64t-87.5 200z" />
    <glyph glyph-name="dotaccent" unicode="&#x2d9;" 
d="M385 1255q0 51 38 89t89 38q52 0 89.5 -37t37.5 -90q0 -55 -36 -91t-91 -36q-54 0 -90.5 37t-36.5 90z" />
    <glyph glyph-name="ring" unicode="&#x2da;" 
d="M399 1284q0 -48 32.5 -80.5t80.5 -32.5q47 0 81 33.5t34 79.5q0 48 -33.5 81.5t-81.5 33.5q-47 0 -80 -33.5t-33 -81.5zM274 1284q0 99 69.5 168.5t168.5 69.5q98 0 168 -70t70 -168t-69 -166.5t-169 -68.5t-169 68t-69 167z" />
    <glyph glyph-name="cedilla" unicode="&#xb8;" 
d="M274 -393v106q81 -19 140 -28t102 -9q52 0 77 17t25 51q0 39 -31.5 56.5t-101.5 17.5q-7 0 -20 -1t-21 -1v184h86v-86h17q112 0 167.5 -43.5t55.5 -130.5q0 -83 -61.5 -127.5t-176.5 -44.5q-49 0 -114 9.5t-144 29.5z" />
    <glyph glyph-name="hungarumlaut" unicode="&#x2dd;" 
d="M567 1092l156 272h199l-258 -272h-97zM305 1092l129 272h189l-230 -272h-88z" />
    <glyph glyph-name="ogonek" unicode="&#x2db;" 
d="M625 0q-69 -59 -100 -110t-31 -103q0 -43 20 -61.5t68 -18.5h94v-156h-96q-119 0 -175.5 44t-56.5 137q0 64 46 129.5t143 138.5h88z" />
    <glyph glyph-name="caron" unicode="&#x2c7;" 
d="M215 1364h123l174 -158l174 158h123l-193 -272h-208z" />
    <glyph glyph-name="Lslash" unicode="&#x141;" horiz-adv-x="977" 
d="M182 0v547l-145 -101l-103 144l248 178v696h238v-561l233 164l103 -147l-336 -236v-471h532v-213h-770z" />
    <glyph glyph-name="lslash" unicode="&#x142;" horiz-adv-x="563" 
d="M172 0v557l-111 -78l-96 142l207 147v782h219v-649l111 78l98 -141l-209 -148v-690h-219z" />
    <glyph glyph-name="Scaron" unicode="&#x160;" horiz-adv-x="1124" 
d="M84 293l190 88q27 -98 99 -149.5t184 -51.5q106 0 168.5 59t62.5 158q0 129 -214 230q-30 15 -46 22q-242 118 -322.5 213.5t-80.5 233.5q0 179 121.5 290t318.5 111q162 0 271 -62.5t151 -179.5l-186 -96q-44 69 -96.5 101t-120.5 32q-96 0 -152.5 -50t-56.5 -134
q0 -132 248 -246q19 -9 30 -14q217 -100 298 -195.5t81 -238.5q0 -208 -131 -330.5t-354 -122.5q-187 0 -306.5 86t-156.5 246zM266 1880h123l174 -158l174 158h123l-193 -272h-208z" />
    <glyph glyph-name="scaron" unicode="&#x161;" horiz-adv-x="872" 
d="M41 172l180 98q20 -71 74 -108t139 -37q73 0 114.5 33.5t41.5 91.5q0 77 -148 132q-50 18 -77 30q-152 63 -212.5 128t-60.5 158q0 127 99.5 206t263.5 79q110 0 188.5 -40.5t114.5 -115.5l-154 -106q-17 45 -59.5 71.5t-98.5 26.5q-62 0 -99.5 -29.5t-37.5 -78.5
q0 -74 168 -135q53 -19 82 -31q131 -52 187.5 -117.5t56.5 -163.5q0 -142 -103 -222.5t-284 -80.5q-139 0 -231 52t-144 159zM139 1364h123l174 -158l174 158h123l-193 -272h-208z" />
    <glyph glyph-name="Zcaron" unicode="&#x17d;" horiz-adv-x="1180" 
d="M18 0l746 1262h-621v202h987l-739 -1251h748v-213h-1121zM293 1880h123l174 -158l174 158h123l-193 -272h-208z" />
    <glyph glyph-name="zcaron" unicode="&#x17e;" horiz-adv-x="920" 
d="M879 0h-881l528 758h-475v190h828l-517 -758h517v-190zM164 1364h123l174 -158l174 158h123l-193 -272h-208z" />
    <glyph glyph-name="brokenbar" unicode="&#xa6;" 
d="M424 408h178v-758h-178v758zM424 1432h178v-758h-178v758z" />
    <glyph glyph-name="Eth" unicode="&#xd0;" horiz-adv-x="1530" 
d="M420 215h201q164 0 246.5 22t144.5 74q83 71 124.5 176.5t41.5 245.5t-41.5 245.5t-124.5 176.5q-63 52 -149.5 74t-270.5 22h-86h-86v-344h387v-184h-387v-508zM182 0v723h-182v184h182v557h322q312 0 439.5 -31.5t223.5 -105.5q127 -97 192.5 -249t65.5 -347
t-65.5 -345.5t-192.5 -248.5q-95 -74 -218 -105.5t-382 -31.5h-63h-322z" />
    <glyph glyph-name="eth" unicode="&#xf0;" horiz-adv-x="1204" 
d="M895 442q0 120 -85 203.5t-208 83.5q-124 0 -208.5 -83t-84.5 -204q0 -119 85.5 -202.5t207.5 -83.5q121 0 207 84t86 202zM864 813q-49 108 -111.5 191.5t-136.5 140.5l-290 -135l-60 116l240 111q-42 32 -93 64.5t-143 82.5l109 160q121 -72 197 -122.5t131 -94.5
l317 143l59 -114l-268 -123q152 -147 230.5 -326t78.5 -377q0 -262 -141.5 -415.5t-382.5 -153.5q-103 0 -198 37t-171 106q-73 68 -112 156.5t-39 188.5q0 96 39.5 183.5t113.5 155.5q72 68 160 101t195 33q76 0 145 -27.5t131 -81.5z" />
    <glyph glyph-name="Yacute" unicode="&#xdd;" horiz-adv-x="1214" 
d="M483 0v670l-493 794h250l307 -497q11 -19 27.5 -50t33.5 -67q14 35 29.5 66t32.5 57l315 491h238l-504 -794v-670h-236zM467 1608l190 272h225l-292 -272h-123z" />
    <glyph glyph-name="yacute" unicode="&#xfd;" horiz-adv-x="965" 
d="M313 -446h-223l260 528l-348 866h240l174 -491q15 -45 26.5 -91.5t18.5 -94.5q13 50 62 159l5 12l234 506h235zM342 1092l190 272h225l-292 -272h-123z" />
    <glyph glyph-name="Thorn" unicode="&#xde;" horiz-adv-x="1090" 
d="M391 551h76q198 0 264 43t66 151q0 118 -70.5 165.5t-259.5 47.5h-76v-407zM391 356v-356h-223v1464h223v-301h115q177 0 254.5 -17.5t134.5 -58.5q69 -50 108 -136.5t39 -190.5t-39 -192t-108 -138q-56 -40 -131.5 -57t-235.5 -17h-47h-90z" />
    <glyph glyph-name="thorn" unicode="&#xfe;" horiz-adv-x="1192" 
d="M360 477q0 -147 73.5 -235t193.5 -88q123 0 190.5 82t67.5 233q0 150 -70.5 234.5t-193.5 84.5t-192 -82t-69 -229zM367 123v-569h-217v1996h217v-757q38 90 121.5 139t199.5 49q189 0 306.5 -139.5t117.5 -366.5q0 -239 -115.5 -376.5t-316.5 -137.5q-100 0 -177.5 40
t-135.5 122z" />
    <glyph glyph-name="minus" unicode="&#x2212;" horiz-adv-x="1706" 
d="M254 696h1198v-170h-1198v170z" />
    <glyph glyph-name="multiply" unicode="&#xd7;" horiz-adv-x="1706" 
d="M403 1188l459 -459l461 459l117 -117l-459 -461l459 -458l-117 -119l-461 461l-459 -461l-116 119l458 458l-458 461z" />
    <glyph glyph-name="onesuperior" unicode="&#xb9;" horiz-adv-x="817" 
d="M358 575v758h-200l61 113h281v-871h-142z" />
    <glyph glyph-name="twosuperior" unicode="&#xb2;" horiz-adv-x="817" 
d="M676 690v-115h-647l360 394q67 73 98 129t31 102q0 65 -42 102t-116 37q-66 0 -109 -36.5t-48 -97.5l-152 -1q0 118 87.5 188t234.5 70q140 0 220.5 -65t80.5 -178q0 -79 -45.5 -159.5t-196.5 -240.5l-125 -129h369z" />
    <glyph glyph-name="threesuperior" unicode="&#xb3;" horiz-adv-x="817" 
d="M62 811h151v-8q0 -61 45.5 -97t122.5 -36q89 0 136.5 40t47.5 115q0 79 -49 118.5t-147 39.5h-29v115q4 0 13.5 -1t15.5 -1q85 0 128.5 32.5t43.5 96.5q0 56 -39.5 89.5t-106.5 33.5q-70 0 -109.5 -30.5t-42.5 -86.5h-141q7 111 83.5 171t213.5 60q134 0 211.5 -63
t77.5 -170q0 -81 -44 -132.5t-122 -62.5q92 -15 140.5 -73.5t48.5 -153.5q0 -117 -90.5 -185.5t-245.5 -68.5q-140 0 -224.5 69.5t-88.5 188.5z" />
    <glyph glyph-name="onequarter" unicode="&#xbc;" horiz-adv-x="1901" 
d="M1585 553l-233 -293h229v213q0 17 1 37.5t3 42.5zM1581 0v166h-442l536 661h43v-567h113v-94h-113v-166h-137zM438 -39l887 1518h137l-887 -1518h-137zM340 633v706h-190l57 105h270v-811h-137z" />
    <glyph glyph-name="onehalf" unicode="&#xbd;" horiz-adv-x="1901" 
d="M1767 106v-106h-618l344 367q66 70 95.5 121.5t29.5 93.5q0 61 -40.5 96t-111.5 35q-63 0 -103.5 -34.5t-45.5 -92.5h-146q0 110 83.5 175.5t224.5 65.5q133 0 209.5 -60.5t76.5 -166.5q0 -75 -45 -152.5t-186 -220.5l-117 -121h350zM438 -39l887 1518h137l-887 -1518
h-137zM340 633v706h-190l57 105h270v-811h-137z" />
    <glyph glyph-name="threequarters" unicode="&#xbe;" horiz-adv-x="1901" 
d="M1585 553l-233 -293h229v213q0 17 1 37.5t3 42.5zM1581 0v166h-442l536 661h43v-567h113v-94h-113v-166h-137zM438 -39l887 1518h137l-887 -1518h-137zM60 852h143v-6q0 -58 43.5 -91.5t118.5 -33.5q83 0 128.5 37.5t45.5 107.5q0 74 -47 111t-140 37q-4 0 -13.5 -1
t-14.5 -1v108q5 0 13.5 -1t12.5 -1q82 0 124 30.5t42 90.5q0 52 -37 83.5t-100 31.5q-69 0 -106.5 -28.5t-41.5 -82.5h-135q8 106 81 161.5t204 55.5q128 0 202 -58t74 -159q0 -75 -42 -123t-117 -59q88 -14 134 -68.5t46 -144.5q0 -109 -86.5 -173.5t-233.5 -64.5
q-132 0 -213 66t-85 176z" />
    <glyph glyph-name="franc" unicode="&#x20a3;" horiz-adv-x="1829" 
d="M168 0v1464h817v-202h-579v-365h579v-209h-579v-688h-238zM1442 797q35 94 92.5 139t142.5 45q46 0 90.5 -11t87.5 -32l-78 -184q-28 20 -60.5 29.5t-72.5 9.5q-108 0 -155 -86.5t-47 -290.5v-416h-217v950h217v-153z" />
    <glyph glyph-name="Gbreve" unicode="&#x11e;" horiz-adv-x="1645" 
d="M979 750h580q0 -15 1 -42q3 -71 3 -96q0 -309 -177 -480t-499 -171q-180 0 -321 53t-247 160q-104 106 -159.5 249t-55.5 306q0 166 56.5 306t167.5 247q107 105 251 160t308 55q173 0 309.5 -63t243.5 -193l-174 -131q-74 86 -167 128t-208 42q-238 0 -388.5 -152.5
t-150.5 -396.5q0 -248 150.5 -402.5t390.5 -154.5q204 0 321 95t117 259v21h-352v201zM524 1876l121 -1q9 -64 52 -94t126 -30q82 0 124.5 30t51.5 94l119 1q-16 -138 -86.5 -201t-208.5 -63q-139 0 -211.5 64t-87.5 200z" />
    <glyph glyph-name="gbreve" unicode="&#x11f;" horiz-adv-x="1192" 
d="M831 477q0 147 -68.5 229t-191.5 82t-193.5 -84.5t-70.5 -234.5q0 -151 68 -233t192 -82q117 0 190.5 89t73.5 234zM1042 59q0 -278 -111 -391.5t-374 -113.5q-196 0 -313 82.5t-119 219.5l233 1q5 -61 57 -93t146 -32q139 0 200 61t62 204l2 126q-58 -82 -135.5 -122
t-177.5 -40q-201 0 -316.5 137.5t-115.5 376.5q0 227 118 366.5t308 139.5q116 0 198.5 -48.5t120.5 -139.5v155h217v-889zM297 1360l121 -1q9 -64 52 -94t126 -30q82 0 124.5 30t51.5 94l119 1q-16 -138 -86.5 -201t-208.5 -63q-139 0 -211.5 64t-87.5 200z" />
    <glyph glyph-name="Idotaccent" unicode="&#x130;" horiz-adv-x="584" 
d="M172 0v1464h238v-1464h-238zM166 1771q0 51 38 89t89 38q52 0 89.5 -37t37.5 -90q0 -55 -36 -91t-91 -36q-54 0 -90.5 37t-36.5 90z" />
    <glyph glyph-name="Scedilla" unicode="&#x15e;" horiz-adv-x="1124" 
d="M84 293l190 88q27 -98 99 -149.5t184 -51.5q106 0 168.5 59t62.5 158q0 129 -214 230q-30 15 -46 22q-242 118 -322.5 213.5t-80.5 233.5q0 179 121.5 290t318.5 111q162 0 271 -62.5t151 -179.5l-186 -96q-44 69 -96.5 101t-120.5 32q-96 0 -152.5 -50t-56.5 -134
q0 -132 248 -246q19 -9 30 -14q217 -100 298 -195.5t81 -238.5q0 -208 -131 -330.5t-354 -122.5q-187 0 -306.5 86t-156.5 246zM337 -393v106q81 -19 140 -28t102 -9q52 0 77 17t25 51q0 39 -31.5 56.5t-101.5 17.5q-7 0 -20 -1t-21 -1v184h86v-86h17q112 0 167.5 -43.5
t55.5 -130.5q0 -83 -61.5 -127.5t-176.5 -44.5q-49 0 -114 9.5t-144 29.5z" />
    <glyph glyph-name="scedilla" unicode="&#x15f;" horiz-adv-x="872" 
d="M41 172l180 98q20 -71 74 -108t139 -37q73 0 114.5 33.5t41.5 91.5q0 77 -148 132q-50 18 -77 30q-152 63 -212.5 128t-60.5 158q0 127 99.5 206t263.5 79q110 0 188.5 -40.5t114.5 -115.5l-154 -106q-17 45 -59.5 71.5t-98.5 26.5q-62 0 -99.5 -29.5t-37.5 -78.5
q0 -74 168 -135q53 -19 82 -31q131 -52 187.5 -117.5t56.5 -163.5q0 -142 -103 -222.5t-284 -80.5q-139 0 -231 52t-144 159zM198 -393v106q81 -19 140 -28t102 -9q52 0 77 17t25 51q0 39 -31.5 56.5t-101.5 17.5q-7 0 -20 -1t-21 -1v184h86v-86h17q112 0 167.5 -43.5
t55.5 -130.5q0 -83 -61.5 -127.5t-176.5 -44.5q-49 0 -114 9.5t-144 29.5z" />
    <glyph glyph-name="Cacute" unicode="&#x106;" horiz-adv-x="1470" 
d="M1343 1108q-101 86 -213.5 129t-236.5 43q-240 0 -390.5 -154t-150.5 -399q0 -237 146.5 -391t369.5 -154q130 0 247.5 46t225.5 139v-269q-96 -69 -209 -103t-245 -34q-168 0 -310.5 55t-250.5 162q-107 105 -164.5 247.5t-57.5 303.5t57.5 302.5t166.5 248.5
q109 108 250 163.5t305 55.5q129 0 246 -37.5t227 -113.5zM725 1608l190 272h225l-292 -272h-123z" />
    <glyph glyph-name="cacute" unicode="&#x107;" horiz-adv-x="930" 
d="M858 678q-50 55 -116.5 84t-143.5 29q-133 0 -213 -86t-80 -228q0 -148 80.5 -232.5t222.5 -84.5q79 0 141 29.5t109 89.5v-250q-60 -34 -128.5 -51t-145.5 -17q-223 0 -363.5 142t-140.5 368q0 229 145.5 369.5t380.5 140.5q74 0 136 -14.5t116 -44.5v-244zM434 1092
l190 272h225l-292 -272h-123z" />
    <glyph glyph-name="Ccaron" unicode="&#x10c;" horiz-adv-x="1470" 
d="M1343 1108q-101 86 -213.5 129t-236.5 43q-240 0 -390.5 -154t-150.5 -399q0 -237 146.5 -391t369.5 -154q130 0 247.5 46t225.5 139v-269q-96 -69 -209 -103t-245 -34q-168 0 -310.5 55t-250.5 162q-107 105 -164.5 247.5t-57.5 303.5t57.5 302.5t166.5 248.5
q109 108 250 163.5t305 55.5q129 0 246 -37.5t227 -113.5zM569 1880h123l174 -158l174 158h123l-193 -272h-208z" />
    <glyph glyph-name="ccaron" unicode="&#x10d;" horiz-adv-x="930" 
d="M858 678q-50 55 -116.5 84t-143.5 29q-133 0 -213 -86t-80 -228q0 -148 80.5 -232.5t222.5 -84.5q79 0 141 29.5t109 89.5v-250q-60 -34 -128.5 -51t-145.5 -17q-223 0 -363.5 142t-140.5 368q0 229 145.5 369.5t380.5 140.5q74 0 136 -14.5t116 -44.5v-244zM278 1364
h123l174 -158l174 158h123l-193 -272h-208z" />
    <glyph glyph-name="dcroat" unicode="&#x111;" horiz-adv-x="1210" 
d="M831 477q0 148 -68.5 229.5t-191.5 81.5t-193.5 -85t-70.5 -234q0 -150 68.5 -232.5t191.5 -82.5q118 0 191 88t73 235zM825 1169h-336v162h336v219h217v-219h168v-162h-168v-1169h-217v123q-57 -82 -134.5 -122t-178.5 -40q-200 0 -316 137t-116 377q0 226 118 366
t308 140q115 0 197.5 -49t121.5 -139v376z" />
    <glyph glyph-name="sfthyphen" unicode="&#xad;" horiz-adv-x="829" 
d="M147 571h535v-200h-535v200z" />
    <glyph glyph-name="periodcentered" unicode="&#x2219;" horiz-adv-x="618" 
d="M178 721q0 55 38 93t93 38q56 0 93.5 -38t37.5 -93q0 -54 -38 -92.5t-93 -38.5q-54 0 -92.5 38.5t-38.5 92.5z" />
    <glyph glyph-name="Euro" horiz-adv-x="1237" 
d="M1159 324l-8 -244q-82 -59 -175 -89t-194 -30q-236 0 -402.5 157t-211.5 425h-168l25 110h132q0 13 -0.5 27t-0.5 41q0 14 2 55q1 16 2 25h-160l25 112h147q47 261 215.5 413.5t409.5 152.5q97 0 184.5 -32.5t169.5 -98.5v-242q-69 81 -155 123.5t-181 42.5
q-150 0 -259.5 -98t-139.5 -261h583l-34 -112h-568q-2 -34 -3 -57.5t-1 -43.5v-12q0 -7 0.5 -15.5t1.5 -19.5h523l-37 -110h-471q31 -173 137.5 -274t255.5 -101q94 0 181.5 38t174.5 118z" />
    <glyph glyph-name="Euro" unicode="&#x20ac;" horiz-adv-x="1237" 
d="M1159 324l-8 -244q-82 -59 -175 -89t-194 -30q-236 0 -402.5 157t-211.5 425h-168l25 110h132q0 13 -0.5 27t-0.5 41q0 14 2 55q1 16 2 25h-160l25 112h147q47 261 215.5 413.5t409.5 152.5q97 0 184.5 -32.5t169.5 -98.5v-242q-69 81 -155 123.5t-181 42.5
q-150 0 -259.5 -98t-139.5 -261h583l-34 -112h-568q-2 -34 -3 -57.5t-1 -43.5v-12q0 -7 0.5 -15.5t1.5 -19.5h523l-37 -110h-471q31 -173 137.5 -274t255.5 -101q94 0 181.5 38t174.5 118z" />
    </font>
</defs>
</svg>
