<?xml version="1.0" standalone="no"?>
<!DOCTYPE svg PUBLIC "-//W3C//DTD SVG 1.1//EN" "http://www.w3.org/Graphics/SVG/1.1/DTD/svg11.dtd" >
<svg xmlns="http://www.w3.org/2000/svg" xmlns:xlink="http://www.w3.org/1999/xlink" version="1.1">
<metadata>
Created by FontForge 20201107 at Tue Dec  9 17:47:11 2003
 By Jimmy Wärting
Copyright 1990-2003 Bitstream Inc. All rights reserved.
</metadata>
<defs>
<font id="FuturaBT-Bold" horiz-adv-x="1024" >
  <font-face 
    font-family="Futura Md BT"
    font-weight="700"
    font-stretch="normal"
    units-per-em="2048"
    panose-1="2 11 8 2 2 2 4 2 2 4"
    ascent="1556"
    descent="-492"
    x-height="1010"
    cap-height="1464"
    bbox="-342 -485 2669 1972"
    underline-thickness="272"
    underline-position="-369"
    unicode-range="U+0020-F002"
  />
<missing-glyph horiz-adv-x="1229" 
d="M102 -362v1806h1024v-1806h-1024zM217 -248h795v1577h-795v-1577z" />
    <glyph glyph-name=".notdef" horiz-adv-x="1229" 
d="M102 -362v1806h1024v-1806h-1024zM217 -248h795v1577h-795v-1577z" />
    <glyph glyph-name=".null" horiz-adv-x="0" 
 />
    <glyph glyph-name="nonmarkingreturn" horiz-adv-x="641" 
 />
    <glyph glyph-name="space" unicode=" " horiz-adv-x="641" 
 />
    <glyph glyph-name="exclam" unicode="!" horiz-adv-x="702" 
d="M166 487v1045h371v-1045h-371zM150 164q0 85 57.5 144t142.5 59q86 0 144.5 -58.5t58.5 -144.5q0 -85 -59 -144t-144 -59q-84 0 -142 59t-58 144z" />
    <glyph glyph-name="quotedbl" unicode="&#x22;" horiz-adv-x="713" 
d="M416 1438h223v-561h-223v561zM76 1438h219v-561h-219v561z" />
    <glyph glyph-name="numbersign" unicode="#" horiz-adv-x="1575" 
d="M707 842l-82 -232h245l82 232h-245zM684 1466h250l-139 -393h235l141 393h250l-139 -393h270l-86 -231h-268l-80 -230h277l-84 -231h-275l-141 -393h-250l139 393h-235l-141 -393h-250l139 393h-274l86 231h270l82 230h-283l86 231h279z" />
    <glyph glyph-name="dollar" unicode="$" horiz-adv-x="1280" 
d="M238 475q86 -100 174.5 -149.5t181.5 -49.5q75 0 124.5 43.5t49.5 108.5q0 71 -41.5 109.5t-189.5 78.5q-225 62 -315.5 154.5t-90.5 253.5q0 198 124.5 321t348.5 146v139h129l1 -137q87 -9 171 -40.5t166 -86.5l-127 -285q-67 57 -138 86t-142 29q-72 0 -116 -33.5
t-44 -87.5q0 -55 39 -88t153 -63l13 -4q246 -66 323 -146q52 -54 79.5 -129t27.5 -166q0 -208 -126 -345t-337 -159v-243h-129v239q-142 2 -261 53t-229 158z" />
    <glyph glyph-name="percent" unicode="%" horiz-adv-x="1851" 
d="M426 825q67 0 97 58.5t30 191.5t-30 191.5t-97 58.5t-97 -58.5t-30 -191.5t30 -191.5t97 -58.5zM803 1075q0 -184 -102.5 -293.5t-274.5 -109.5q-173 0 -275 109t-102 294t102 294.5t275 109.5t275 -109.5t102 -294.5zM1444 115q67 0 97 59t30 193q0 133 -30 191t-97 58
t-97 -58t-30 -191q0 -134 30 -193t97 -59zM1819 367q0 -186 -102 -296t-273 -110q-173 0 -275 110t-102 296q0 185 102 294t275 109q172 0 273.5 -109t101.5 -294zM393 -39l879 1518h188l-885 -1518h-182z" />
    <glyph glyph-name="ampersand" unicode="&#x26;" horiz-adv-x="1651" 
d="M1165 0l-129 150q-105 -98 -221 -143.5t-258 -45.5q-195 0 -318.5 114.5t-123.5 293.5q0 138 81 243.5t259 198.5q-69 79 -102.5 153.5t-33.5 147.5q0 147 115.5 245.5t290.5 98.5q200 0 315 -97t115 -263q0 -106 -62.5 -198t-187.5 -171l172 -180q51 42 102 92t103 111
l209 -215q-52 -64 -101.5 -115t-99.5 -92l318 -328h-443zM836 348l-236 258q-69 -61 -101 -111.5t-32 -99.5q0 -64 44.5 -107.5t111.5 -43.5q48 0 101 25.5t112 78.5zM733 899l47 39q50 41 76.5 83t26.5 81q0 53 -34.5 86t-90.5 33q-63 0 -99 -34.5t-36 -94.5q0 -24 15 -60
t38 -63z" />
    <glyph glyph-name="quotesingle" unicode="'" horiz-adv-x="371" 
d="M76 1438h219v-561h-219v561z" />
    <glyph glyph-name="parenleft" unicode="(" horiz-adv-x="743" 
d="M684 -317l-219 -152q-184 223 -272.5 464.5t-88.5 522.5q0 282 88.5 524.5t272.5 464.5l227 -147q-148 -177 -218.5 -380.5t-70.5 -461.5q0 -246 69 -451t212 -384z" />
    <glyph glyph-name="parenright" unicode=")" horiz-adv-x="743" 
d="M61 -317q144 179 212.5 384t68.5 451q0 256 -70.5 460t-220.5 382l230 147q182 -221 270 -463.5t88 -525.5q0 -282 -88 -524t-270 -463z" />
    <glyph glyph-name="asterisk" unicode="*" horiz-adv-x="1067" 
d="M600 1208l205 160l100 -178l-239 -96l241 -99l-102 -176l-205 160l35 -258h-203l33 258l-203 -160l-102 176l243 99l-243 96l102 176l205 -158l-37 256h205z" />
    <glyph glyph-name="plus" unicode="+" horiz-adv-x="1706" 
d="M735 1221h238v-494h479v-231h-479v-496h-238v496h-481v231h481v494z" />
    <glyph glyph-name="comma" unicode="," horiz-adv-x="639" 
d="M240 332h372l-309 -627h-276z" />
    <glyph glyph-name="hyphen" unicode="-" horiz-adv-x="934" 
d="M127 340v326h680v-326h-680z" />
    <glyph glyph-name="period" unicode="." horiz-adv-x="639" 
d="M119 164q0 85 57.5 143t142.5 58q87 0 145 -58t58 -143t-58.5 -144t-144.5 -59q-84 0 -142 59t-58 144z" />
    <glyph glyph-name="slash" unicode="/" horiz-adv-x="938" 
d="M0 -190l717 1687h221l-715 -1687h-223z" />
    <glyph glyph-name="zero" unicode="0" horiz-adv-x="1280" 
d="M1194 707q0 -348 -147.5 -547t-405.5 -199t-406.5 202.5t-148.5 557.5q0 354 148.5 556t406.5 202q262 0 407.5 -202.5t145.5 -569.5zM455 721q0 -240 44.5 -350.5t141.5 -110.5q95 0 139.5 111t44.5 350q0 237 -44.5 349t-139.5 112q-98 0 -142 -109.5t-44 -351.5z" />
    <glyph glyph-name="one" unicode="1" horiz-adv-x="1280" 
d="M492 0v1118h-314l172 332h506v-1450h-364z" />
    <glyph glyph-name="two" unicode="2" horiz-adv-x="1280" 
d="M1157 0h-1118l657 778q60 71 88.5 128.5t28.5 107.5q0 77 -48.5 125.5t-127.5 48.5q-94 0 -144.5 -60t-50.5 -174v-18h-352v10q0 249 145.5 392t397.5 143q246 0 392 -127t146 -338q0 -103 -46 -200.5t-152 -213.5l-264 -291h448v-311z" />
    <glyph glyph-name="three" unicode="3" horiz-adv-x="1280" 
d="M84 485h371v-24q0 -96 45 -145.5t133 -49.5q92 0 141 47.5t49 137.5q0 101 -52.5 148.5t-164.5 47.5q-18 0 -27.5 -0.5t-17.5 -0.5v235h21q101 0 155 44t54 128q0 67 -45.5 109t-116.5 42q-76 0 -118 -41t-44 -116h-354q4 205 143.5 318.5t390.5 113.5
q224 0 352.5 -101.5t128.5 -275.5q0 -111 -59 -188.5t-172 -112.5q137 -25 213 -119.5t76 -241.5q0 -213 -151.5 -346t-395.5 -133q-256 0 -405.5 137.5t-149.5 372.5v14z" />
    <glyph glyph-name="four" unicode="4" horiz-adv-x="1280" 
d="M721 616v426q0 59 2.5 98.5t7.5 67.5q-19 -43 -42.5 -86t-57.5 -96l-269 -410h359zM721 0v328h-666v288l545 840h455v-840h162v-288h-162v-328h-334z" />
    <glyph glyph-name="five" unicode="5" horiz-adv-x="1280" 
d="M1094 1450v-299h-555l-29 -188q45 10 90.5 15t89.5 5q223 0 352 -133.5t129 -362.5q0 -244 -160.5 -385t-439.5 -141q-133 0 -248 30t-202 87l26 354l31 -6q54 -81 144 -127.5t194 -46.5q139 0 215 66.5t76 187.5q0 116 -82 190t-213 74q-88 0 -159 -29.5t-128 -89.5
l-49 29l121 770h797z" />
    <glyph glyph-name="six" unicode="6" horiz-adv-x="1280" 
d="M641 700q-102 0 -161.5 -60.5t-59.5 -164.5q0 -103 59.5 -163t161.5 -60t161.5 60t59.5 163q0 104 -59.5 164.5t-161.5 60.5zM623 934q35 11 73 16.5t80 5.5q186 0 308 -130.5t122 -331.5q0 -242 -152.5 -387.5t-408.5 -145.5q-255 0 -405 144t-150 387q0 125 50.5 257
t211.5 384l205 317h408z" />
    <glyph glyph-name="seven" unicode="7" horiz-adv-x="1280" 
d="M195 0l550 1122h-618v328h1118v-70l-637 -1380h-413z" />
    <glyph glyph-name="eight" unicode="8" horiz-adv-x="1280" 
d="M639 901q80 0 127 45t47 123t-46 122t-128 44q-80 0 -126 -44.5t-46 -121.5t46.5 -122.5t125.5 -45.5zM639 254q94 0 148.5 52t54.5 143q0 89 -54.5 140.5t-148.5 51.5q-93 0 -147 -51.5t-54 -140.5q0 -90 54.5 -142.5t146.5 -52.5zM897 782q143 -26 222 -125.5
t79 -253.5q0 -208 -147.5 -325t-411.5 -117q-263 0 -410 117t-147 325q0 154 79 253.5t222 125.5q-116 28 -179 106.5t-63 194.5q0 187 131.5 291.5t366.5 104.5q236 0 368 -105t132 -291q0 -116 -63 -194.5t-179 -106.5z" />
    <glyph glyph-name="nine" unicode="9" horiz-adv-x="1280" 
d="M651 741q103 0 162 60t59 164t-59.5 164.5t-161.5 60.5t-161.5 -60.5t-59.5 -164.5t59.5 -164t161.5 -60zM669 507q-34 -10 -72.5 -16t-80.5 -6q-186 0 -308 130.5t-122 330.5q0 243 152 389t407 146t405 -144t150 -387q0 -130 -58 -274.5t-204 -366.5l-203 -309h-407z
" />
    <glyph glyph-name="colon" unicode=":" horiz-adv-x="702" 
d="M150 799q0 85 57.5 142.5t142.5 57.5q87 0 145 -57.5t58 -142.5q0 -86 -59 -144.5t-144 -58.5q-84 0 -142 59t-58 144zM150 164q0 85 57.5 143t142.5 58q87 0 145 -58t58 -143t-59 -144t-144 -59q-84 0 -142 59t-58 144z" />
    <glyph glyph-name="semicolon" unicode=";" horiz-adv-x="702" 
d="M244 799q0 85 58.5 142.5t143.5 57.5q86 0 143.5 -57t57.5 -143t-58 -144.5t-143 -58.5q-84 0 -143 59t-59 144zM266 332h373l-309 -627h-277z" />
    <glyph glyph-name="less" unicode="&#x3c;" horiz-adv-x="1706" 
d="M1442 1214v-253l-854 -351l854 -348v-254l-1178 486v233z" />
    <glyph glyph-name="equal" unicode="=" horiz-adv-x="1706" 
d="M254 502h1198v-230h-1198v230zM254 950h1198v-231h-1198v231z" />
    <glyph glyph-name="greater" unicode="&#x3e;" horiz-adv-x="1706" 
d="M264 1214l1178 -487v-233l-1178 -486v254l854 348l-854 351v253z" />
    <glyph glyph-name="question" unicode="?" horiz-adv-x="1239" 
d="M399 164q0 85 59 144t144 59q86 0 143.5 -58.5t57.5 -144.5t-58 -144.5t-143 -58.5q-84 0 -143.5 59t-59.5 144zM786 496h-344v413h107q113 0 172 46t59 132q0 69 -45.5 116.5t-111.5 47.5q-70 0 -109.5 -37.5t-44.5 -109.5h-342v4q0 195 139 311.5t373 116.5
q212 0 341.5 -123t129.5 -323q0 -167 -89.5 -272t-233.5 -109z" />
    <glyph glyph-name="at" unicode="@" horiz-adv-x="2048" 
d="M1161 262q-56 -82 -126.5 -120t-168.5 -38q-163 0 -247 87.5t-84 257.5q0 241 141.5 404t349.5 163q77 0 134 -30.5t95 -92.5l52 92h206l-153 -610q0 -2 -1 -6q-3 -18 -3 -27q0 -30 16 -44.5t47 -14.5q137 0 240.5 143.5t103.5 335.5q0 239 -179.5 390t-467.5 151
q-148 0 -274 -36.5t-230 -109.5q-155 -110 -239 -274.5t-84 -356.5q0 -302 203 -481.5t544 -179.5q164 0 316 47.5t280 138.5l97 -135q-156 -117 -329 -175t-364 -58q-192 0 -354.5 49t-288.5 145q-157 122 -234 281.5t-77 361.5q0 169 53 320.5t156 277.5
q148 183 359.5 278t467.5 95q170 0 320 -46t260 -132q136 -107 203 -243t67 -306q0 -167 -65.5 -307t-190.5 -240q-69 -56 -154 -85.5t-176 -29.5q-106 0 -161 40t-60 120zM1198 696q-9 76 -50 116t-110 40q-103 0 -181.5 -121.5t-78.5 -286.5q0 -83 35 -128.5t98 -45.5
q84 0 148 59t88 158z" />
    <glyph glyph-name="A" unicode="A" horiz-adv-x="1479" 
d="M543 547h397l-149 483q-7 22 -19 71t-31 126q-13 -54 -25.5 -103t-25.5 -94zM-16 0l505 1464h500l506 -1464h-397l-74 262h-567l-76 -262h-397z" />
    <glyph glyph-name="B" unicode="B" horiz-adv-x="1389" 
d="M526 879h80q148 0 203 32.5t55 112.5q0 83 -51.5 116.5t-200.5 33.5h-86v-295zM156 0v1464h401q248 0 346.5 -16t169.5 -55q81 -45 123.5 -120.5t42.5 -174.5q0 -125 -63.5 -198.5t-202.5 -111.5q156 -12 244 -109.5t88 -260.5q0 -117 -49.5 -206t-141.5 -138
q-75 -40 -185 -57t-360 -17h-413zM526 299h140q142 0 201 35.5t59 118.5q0 92 -54 128.5t-200 36.5h-146v-319z" />
    <glyph glyph-name="C" unicode="C" horiz-adv-x="1286" 
d="M1217 1407v-436q-82 91 -163.5 133.5t-174.5 42.5q-172 0 -278.5 -117.5t-106.5 -306.5q0 -176 108.5 -292t276.5 -116q93 0 174.5 42.5t163.5 134.5v-437q-95 -46 -189 -69t-190 -23q-120 0 -221.5 28.5t-186.5 86.5q-164 110 -250 277t-86 376q0 168 54.5 305.5
t164.5 249.5q104 107 234.5 160t290.5 53q96 0 190 -23t189 -69z" />
    <glyph glyph-name="D" unicode="D" horiz-adv-x="1569" 
d="M156 0v1464h305q341 0 482.5 -32t248.5 -107q139 -97 211 -248.5t72 -345.5t-72 -345.5t-211 -248.5q-106 -74 -242 -105.5t-422 -31.5h-67h-305zM551 328h67q235 0 343 96.5t108 306.5t-108 308t-343 98h-67v-809z" />
    <glyph glyph-name="E" unicode="E" horiz-adv-x="1161" 
d="M156 0v1464h897v-321h-508v-254h479v-314h-479v-247h508v-328h-897z" />
    <glyph glyph-name="F" unicode="F" horiz-adv-x="1114" 
d="M156 0v1464h897v-321h-508v-254h479v-314h-479v-575h-389z" />
    <glyph glyph-name="G" unicode="G" horiz-adv-x="1726" 
d="M852 539v307h784q1 -15 1.5 -33t0.5 -53q0 -378 -199.5 -586.5t-561.5 -208.5q-178 0 -316.5 53.5t-247.5 163.5q-104 105 -161.5 248.5t-57.5 300.5q0 164 56 301.5t167 247.5q110 107 252.5 162t307.5 55q215 0 380.5 -85t278.5 -253l-346 -166q-62 85 -139.5 126.5
t-173.5 41.5q-179 0 -282 -119.5t-103 -326.5q0 -209 103 -329t282 -120q152 0 253.5 74.5t118.5 198.5h-397z" />
    <glyph glyph-name="H" unicode="H" horiz-adv-x="1642" 
d="M156 0v1464h399v-569h532v569h400v-1464h-400v596h-532v-596h-399z" />
    <glyph glyph-name="I" unicode="I" horiz-adv-x="735" 
d="M166 0v1464h403v-1464h-403z" />
    <glyph glyph-name="J" unicode="J" horiz-adv-x="981" 
d="M444 1464h398v-950q0 -155 -20 -238t-66 -147q-61 -83 -150 -125.5t-200 -42.5q-138 0 -246 59t-185 175l244 221q9 -65 42 -100t83 -35q57 0 78.5 63t21.5 315v805z" />
    <glyph glyph-name="K" unicode="K" horiz-adv-x="1485" 
d="M156 0v1464h395v-665l463 665h465l-541 -714l588 -750h-498l-477 657v-657h-395z" />
    <glyph glyph-name="L" unicode="L" horiz-adv-x="1090" 
d="M156 0v1464h399v-1122h496v-342h-895z" />
    <glyph glyph-name="M" unicode="M" horiz-adv-x="1894" 
d="M1835 0h-373l-86 633q-9 67 -16.5 149t-13.5 179q-14 -93 -55 -232q-9 -29 -13 -43l-199 -686h-266l-199 686q-4 14 -12 43q-42 139 -55 231q-6 -83 -14 -164.5t-19 -162.5l-86 -633h-371l226 1464h395l221 -755q2 -8 8 -26q31 -101 39 -173q4 39 15 86.5t30 114.5
l223 753h396z" />
    <glyph glyph-name="N" unicode="N" horiz-adv-x="1745" 
d="M156 0v1464h385l553 -753q16 -23 52.5 -92.5t80.5 -165.5q-12 91 -17.5 162t-5.5 126v723h383v-1464h-383l-553 756q-17 23 -53.5 92.5t-79.5 163.5q12 -92 17.5 -163t5.5 -126v-723h-385z" />
    <glyph glyph-name="O" unicode="O" horiz-adv-x="1753" 
d="M1659 729q0 -158 -58 -296t-169 -247q-112 -108 -256 -166.5t-299 -58.5q-157 0 -300.5 58.5t-252.5 166.5q-113 109 -171.5 248t-58.5 295q0 157 58.5 295.5t171.5 247.5q109 108 252.5 166.5t300.5 58.5q156 0 300.5 -58.5t254.5 -166.5t168.5 -247t58.5 -296zM877 299
q166 0 274.5 122t108.5 308q0 184 -110 307t-273 123q-166 0 -274.5 -122.5t-108.5 -307.5q0 -188 107 -309t276 -121z" />
    <glyph glyph-name="P" unicode="P" horiz-adv-x="1298" 
d="M530 0h-374v1464h417q245 0 344 -24t168 -82q81 -67 123.5 -167.5t42.5 -223.5q0 -131 -42 -230.5t-124 -163.5q-62 -48 -146 -69t-269 -21h-68h-72v-483zM530 805h76q144 0 201 39.5t57 134.5q0 92 -56 131t-198 39h-80v-344z" />
    <glyph glyph-name="Q" unicode="Q" horiz-adv-x="1753" 
d="M1118 584l76 -101q32 50 49 109.5t17 126.5q0 193 -108.5 317.5t-274.5 124.5q-163 0 -273 -124t-110 -308q0 -188 109 -311t276 -123q23 0 47.5 5.5t52.5 16.5l-207 267h346zM1690 -172h-340l-156 205q-63 -34 -141 -51t-170 -17q-125 0 -239.5 33t-213.5 98
q-157 105 -246.5 273.5t-89.5 361.5q0 156 59 295t171 248q110 108 252 165.5t301 57.5q158 0 300 -57.5t253 -165.5q111 -109 170 -248t59 -295q0 -164 -60 -304t-176 -245z" />
    <glyph glyph-name="R" unicode="R" horiz-adv-x="1313" 
d="M156 0v1464h417q245 0 341.5 -22.5t166.5 -75.5q79 -60 121.5 -153t42.5 -205q0 -170 -83.5 -276.5t-243.5 -141.5l399 -590h-451l-336 573v-573h-374zM530 772h74q129 0 188.5 44t59.5 138q0 110 -55.5 156.5t-186.5 46.5h-80v-385z" />
    <glyph glyph-name="S" unicode="S" horiz-adv-x="1190" 
d="M221 473q89 -101 175.5 -151t172.5 -50q80 0 131.5 43t51.5 109q0 73 -44.5 112.5t-201.5 81.5q-215 58 -304 151t-89 255q0 210 140.5 342.5t364.5 132.5q121 0 229.5 -32.5t205.5 -98.5l-125 -287q-68 58 -139.5 87.5t-141.5 29.5q-72 0 -117 -34.5t-45 -88.5
q0 -55 39.5 -88t152.5 -63l18 -5q244 -66 321 -145q52 -54 79 -129.5t27 -167.5q0 -233 -153 -374.5t-408 -141.5q-153 0 -278.5 52t-241.5 163z" />
    <glyph glyph-name="T" unicode="T" horiz-adv-x="1133" 
d="M367 0v1118h-328v346h1055v-346h-328v-1118h-399z" />
    <glyph glyph-name="U" unicode="U" horiz-adv-x="1597" 
d="M147 1464h398v-712q0 -157 8 -225.5t27 -114.5q23 -56 80 -85.5t139 -29.5t138.5 29.5t80.5 85.5q19 46 27 114.5t8 225.5v100v612h397v-774q0 -241 -29 -355.5t-98 -195.5q-75 -89 -206 -133.5t-318 -44.5q-188 0 -318.5 44.5t-206.5 133.5q-68 81 -97.5 195.5
t-29.5 355.5v152v622z" />
    <glyph glyph-name="V" unicode="V" horiz-adv-x="1456" 
d="M575 0l-614 1464h424l293 -819q4 -13 16.5 -62.5t32.5 -133.5q16 67 30 121t21 75l291 819h424l-614 -1464h-304z" />
    <glyph glyph-name="W" unicode="W" horiz-adv-x="1987" 
d="M1153 1464l184 -696q13 -47 24 -98t23 -117q15 78 25.5 128.5t20.5 86.5l172 696h403l-414 -1464h-370l-181 625q-10 33 -33 129q-10 43 -16 67q-5 -21 -14 -59q-23 -97 -35 -137l-178 -625h-371l-413 1464h403l168 -700q12 -54 23.5 -108t21.5 -111q9 42 19.5 88
t31.5 131l184 700h322z" />
    <glyph glyph-name="X" unicode="X" horiz-adv-x="1446" 
d="M674 1124l2 -4q35 -66 47 -116q11 46 45 109q4 7 6 11l176 340h473l-489 -704l541 -760h-453l-248 434q-17 29 -30 59.5t-21 61.5q-9 -35 -21 -65t-28 -56l-250 -434h-453l543 768l-491 696h475z" />
    <glyph glyph-name="Y" unicode="Y" horiz-adv-x="1223" 
d="M416 0v668l-512 796h458l197 -377q2 -3 6 -11q31 -59 43 -113q10 49 43 109q6 11 8 15l195 377h459l-512 -796v-668h-385z" />
    <glyph glyph-name="Z" unicode="Z" horiz-adv-x="1386" 
d="M1298 0h-1294l739 1147h-593v317h1232l-737 -1145h653v-319z" />
    <glyph glyph-name="bracketleft" unicode="[" horiz-adv-x="743" 
d="M180 1497h508v-242h-219v-1474h219v-242h-508v1958z" />
    <glyph glyph-name="backslash" unicode="\" horiz-adv-x="938" 
d="M717 -190l-717 1687h223l715 -1687h-221z" />
    <glyph glyph-name="bracketright" unicode="]" horiz-adv-x="743" 
d="M563 1497v-1958h-506v242h217v1474h-217v242h506z" />
    <glyph glyph-name="asciicircum" unicode="^" horiz-adv-x="2048" 
d="M879 1462h288l465 -563h-264l-344 342l-346 -342h-264z" />
    <glyph glyph-name="underscore" unicode="_" 
d="M0 -244h1024v-239h-1024v239z" />
    <glyph glyph-name="grave" unicode="`" 
d="M223 1497h281l182 -350h-154z" />
    <glyph glyph-name="a" unicode="a" horiz-adv-x="1352" 
d="M901 506q0 118 -63 187t-172 69t-171.5 -68.5t-62.5 -187.5q0 -118 63 -186t171 -68q109 0 172 68t63 186zM1214 1010v-1010h-327v164q-70 -105 -157.5 -154t-205.5 -49q-202 0 -323 147.5t-121 395.5q0 247 126.5 392.5t340.5 145.5q114 0 196.5 -48.5t141.5 -149.5v166
h329z" />
    <glyph glyph-name="b" unicode="b" horiz-adv-x="1352" 
d="M449 504q0 -118 61.5 -186t169.5 -68q109 0 171 67.5t62 186.5q0 118 -62.5 186t-170.5 68t-169.5 -68t-61.5 -186zM133 1550h340v-528q0 -64 -2.5 -106.5t-7.5 -73.5q62 108 142.5 154t209.5 46q202 0 327.5 -148.5t125.5 -389.5q0 -249 -126.5 -396t-338.5 -147
q-104 0 -189 50.5t-153 152.5v-164h-328v1550z" />
    <glyph glyph-name="c" unicode="c" horiz-adv-x="944" 
d="M856 678q-52 46 -100 67t-101 21q-106 0 -168.5 -70t-62.5 -190q0 -116 65 -185t175 -69q54 0 101.5 21.5t90.5 66.5v-309q-64 -36 -128 -53t-132 -17q-233 0 -377.5 149.5t-144.5 393.5q0 237 147.5 387.5t378.5 150.5q77 0 139 -15t117 -48v-301z" />
    <glyph glyph-name="d" unicode="d" horiz-adv-x="1352" 
d="M903 504q0 118 -62.5 186t-170.5 68t-170 -68t-62 -186q0 -119 61.5 -186.5t170.5 -67.5q108 0 170.5 68t62.5 186zM1219 1550v-1550h-328v164q-68 -102 -153 -152.5t-189 -50.5q-213 0 -339 147t-126 396q0 241 125.5 389.5t327.5 148.5q128 0 208.5 -46t143.5 -154
q-6 36 -9 81.5t-3 98.5v528h342z" />
    <glyph glyph-name="e" unicode="e" horiz-adv-x="1251" 
d="M827 635q-10 86 -65.5 138t-136.5 52q-87 0 -138.5 -47.5t-68.5 -142.5h409zM1178 434h-768q1 -117 60 -180.5t167 -63.5q81 0 136.5 30.5t84.5 90.5l268 -108q-48 -116 -170 -179t-299 -63q-264 0 -423.5 146.5t-159.5 386.5q0 236 159.5 392t403.5 156q251 0 396 -158
t145 -433v-17z" />
    <glyph glyph-name="f" unicode="f" horiz-adv-x="719" 
d="M166 0v758h-152v252h152v207q0 176 96 265t287 89q27 0 64.5 -5t80.5 -14v-272q-24 9 -44.5 13.5t-37.5 4.5q-50 0 -73 -30t-23 -97v-161h178v-252h-178v-758h-350z" />
    <glyph glyph-name="g" unicode="g" horiz-adv-x="1352" 
d="M901 508q0 117 -62.5 183.5t-172.5 66.5q-111 0 -174.5 -66.5t-63.5 -183.5q0 -116 63.5 -183t174.5 -67q109 0 172 67t63 183zM1214 1010v-1008q0 -229 -139.5 -338.5t-431.5 -109.5q-236 0 -370 87.5t-142 247.5h369q8 -47 52.5 -73.5t117.5 -26.5q115 0 158.5 55.5
t43.5 233.5v92q-56 -95 -143 -141.5t-207 -46.5q-200 0 -321 144.5t-121 385.5q0 243 126.5 386.5t340.5 143.5q113 0 195.5 -47t142.5 -147v162h329z" />
    <glyph glyph-name="h" unicode="h" horiz-adv-x="1337" 
d="M131 0v1550h350v-544q0 -54 -3 -100t-9 -83q67 113 158 166t217 53q98 0 174.5 -31.5t124.5 -90.5q40 -51 57 -124t17 -218v-578h-357v541q0 121 -39.5 176t-126.5 55q-111 0 -162 -82t-51 -266v-424h-350z" />
    <glyph glyph-name="i" unicode="i" horiz-adv-x="639" 
d="M123 1325q0 81 57.5 138t138.5 57q84 0 140.5 -56t56.5 -139t-57.5 -141t-139.5 -58q-80 0 -138 59t-58 140zM141 0v1010h357v-1010h-357z" />
    <glyph glyph-name="j" unicode="j" horiz-adv-x="639" 
d="M123 1325q0 81 57.5 138t138.5 57q84 0 140.5 -56t56.5 -139t-57.5 -141t-139.5 -58q-80 0 -138 59t-58 140zM141 -446v1456h357v-1456h-357z" />
    <glyph glyph-name="k" unicode="k" horiz-adv-x="1313" 
d="M133 0v1550h350v-981l367 441h442l-454 -486l495 -524h-469l-381 449v-449h-350z" />
    <glyph glyph-name="l" unicode="l" horiz-adv-x="639" 
d="M141 0v1550h357v-1550h-357z" />
    <glyph glyph-name="m" unicode="m" horiz-adv-x="1942" 
d="M1468 0v551q0 131 -32.5 181t-112.5 50q-100 0 -139 -69.5t-39 -284.5v-428h-344v551q0 133 -32 182t-112 49q-100 0 -140 -68.5t-40 -285.5v-428h-346v1010h350v-176q63 107 145.5 157.5t194.5 50.5q123 0 201.5 -47.5t112.5 -142.5q59 96 144 143t200 47
q91 0 159.5 -30.5t114.5 -91.5q37 -48 52.5 -112t15.5 -208v-22v-578h-353z" />
    <glyph glyph-name="n" unicode="n" horiz-adv-x="1337" 
d="M131 0v1010h326v-205q71 123 164 180t223 57q98 0 174.5 -31.5t124.5 -90.5q40 -51 57 -124t17 -218v-578h-357v541q0 121 -39.5 176t-126.5 55q-111 0 -162 -82t-51 -266v-424h-350z" />
    <glyph glyph-name="o" unicode="o" horiz-adv-x="1276" 
d="M848 502q0 113 -57 178t-154 65q-98 0 -154.5 -65t-56.5 -178t56 -177.5t155 -64.5q98 0 154.5 64.5t56.5 177.5zM1202 502q0 -109 -42.5 -207t-123.5 -176q-82 -78 -183.5 -118t-215.5 -40q-116 0 -217.5 40t-181.5 118q-80 76 -122 174.5t-42 208.5q0 111 41.5 209
t122.5 176q79 77 180.5 116t218.5 39t218 -39t181 -116q82 -79 124 -177t42 -208z" />
    <glyph glyph-name="p" unicode="p" horiz-adv-x="1352" 
d="M449 502q0 -118 61.5 -186t169.5 -68t170.5 68t62.5 186t-62 186t-171 68q-108 0 -169.5 -68t-61.5 -186zM133 -446v1456h328v-170q68 102 153 152t189 50q213 0 339 -145.5t126 -394.5q0 -242 -125.5 -391.5t-327.5 -149.5q-128 0 -208.5 47t-143.5 155q5 -30 7.5 -73
t2.5 -106v-430h-340z" />
    <glyph glyph-name="q" unicode="q" horiz-adv-x="1352" 
d="M903 502q0 117 -62.5 185.5t-170.5 68.5q-109 0 -170.5 -67.5t-61.5 -186.5q0 -118 62 -186t170 -68t170.5 68t62.5 186zM1219 -446h-342v430q0 52 3 97.5t9 82.5q-63 -109 -144 -156t-208 -47q-202 0 -327.5 149.5t-125.5 391.5q0 249 126 394.5t339 145.5
q104 0 189 -50t153 -152v170h328v-1456z" />
    <glyph glyph-name="r" unicode="r" horiz-adv-x="915" 
d="M133 0v1010h336v-238q52 130 142 195t218 65q21 0 42.5 -1.5t43.5 -4.5l-34 -324q-32 11 -63 16t-60 5q-130 0 -200.5 -79.5t-70.5 -225.5v-418h-354z" />
    <glyph glyph-name="s" unicode="s" horiz-adv-x="991" 
d="M37 84l74 272q78 -68 171.5 -104.5t188.5 -36.5q67 0 102 21.5t35 62.5q0 67 -141 100q-46 11 -74 19q-160 44 -232.5 115.5t-72.5 185.5q0 147 110.5 235t299.5 88q97 0 197.5 -22.5t205.5 -69.5l-74 -245q-71 48 -144 73t-146 25q-61 0 -92 -19t-31 -55q0 -54 140 -91
q32 -9 48 -13q185 -53 257.5 -124.5t72.5 -193.5q0 -155 -119 -250.5t-315 -95.5q-133 0 -247 30.5t-214 92.5z" />
    <glyph glyph-name="t" unicode="t" horiz-adv-x="723" 
d="M186 0v758h-151v252h151v301h351v-301h151v-252h-151v-758h-351z" />
    <glyph glyph-name="u" unicode="u" horiz-adv-x="1292" 
d="M1167 1010v-516q0 -171 -27.5 -253.5t-92.5 -146.5q-67 -67 -167 -100t-235 -33q-134 0 -233.5 33t-169.5 100q-65 62 -92 145.5t-27 254.5v516h340v-539q0 -127 42 -183.5t136 -56.5q95 0 136.5 55.5t41.5 184.5v539h348z" />
    <glyph glyph-name="v" unicode="v" horiz-adv-x="1155" 
d="M436 0l-454 1010h380l172 -446q3 -7 7 -17q33 -88 41 -141q7 49 39 131q7 18 10 27l172 446h371l-459 -1010h-279z" />
    <glyph glyph-name="w" unicode="w" horiz-adv-x="1645" 
d="M930 1010l149 -446l3 -8q33 -94 42 -150q6 32 15.5 67t27.5 90l152 447h369l-424 -1010h-252l-150 457q-12 39 -21.5 78.5t-17.5 78.5q-11 -60 -39 -151l-2 -7l-149 -456h-252l-422 1010h367l151 -447q17 -49 27 -85.5t16 -71.5q9 50 39 139l6 18l150 447h215z" />
    <glyph glyph-name="x" unicode="x" horiz-adv-x="1085" 
d="M485 838q22 -43 33 -70t17 -51q5 25 15 50.5t34 70.5l96 172h403l-346 -469l404 -541h-402l-151 254q-18 30 -30 60t-19 60q-8 -31 -20 -60.5t-30 -59.5l-149 -254h-395l397 541l-340 469h389z" />
    <glyph glyph-name="y" unicode="y" horiz-adv-x="1090" 
d="M76 -446l284 600l-407 856h395l141 -365q18 -46 30 -85.5t18 -73.5q6 36 17.5 74.5t29.5 84.5l143 365h381l-635 -1456h-397z" />
    <glyph glyph-name="z" unicode="z" horiz-adv-x="1110" 
d="M1024 0h-1024l518 750h-455v260h1006l-537 -736h492v-274z" />
    <glyph glyph-name="braceleft" unicode="{" 
d="M893 1477v-242q-7 0 -21 1t-20 1q-98 0 -132 -35.5t-34 -146.5v-240q0 -140 -46 -200t-165 -85q120 -24 165.5 -82.5t45.5 -199.5v-242q0 -110 33.5 -145t130.5 -35q7 0 21.5 1t21.5 1v-242q-15 0 -42 -1t-40 -1q-108 0 -179.5 12t-119.5 37q-59 32 -82.5 88.5
t-23.5 192.5v256q0 133 -49.5 187.5t-168.5 54.5q-4 0 -17 -1t-19 -1v241q6 0 18 -1t18 -1q118 0 168 55.5t50 188.5v254q0 136 24 193.5t82 89.5q48 25 120.5 37t180.5 12q12 0 38.5 -1t41.5 -1z" />
    <glyph glyph-name="bar" unicode="|" 
d="M393 1565h240v-2048h-240v2048z" />
    <glyph glyph-name="braceright" unicode="}" 
d="M133 1477q15 0 41.5 1t38.5 1q108 0 180 -12t121 -37q58 -32 82.5 -89.5t24.5 -193.5v-254q0 -134 49 -189t168 -55q6 0 18 1t18 1v-241q-6 0 -18 1t-18 1q-119 0 -168 -55t-49 -187v-256q0 -137 -24.5 -194.5t-82.5 -88.5q-45 -24 -113.5 -35.5t-177.5 -11.5
q-14 0 -44 1t-46 1v242q9 0 23 -1t20 -1q97 0 130.5 34.5t33.5 145.5v242q0 140 46 199t165 83q-120 25 -165.5 84t-45.5 201v240q0 111 -33.5 146.5t-126.5 35.5q-7 0 -22.5 -1t-24.5 -1v242z" />
    <glyph glyph-name="asciitilde" unicode="~" horiz-adv-x="1706" 
d="M1530 819v-254q-101 -69 -194 -103t-183 -34q-45 0 -89 7.5t-83 21.5q-13 4 -38 13q-255 89 -382 89q-84 0 -175.5 -37.5t-207.5 -120.5v254q112 73 207.5 108.5t179.5 35.5q63 0 126.5 -12t169.5 -46q16 -5 51 -17q159 -56 247 -56q84 0 173.5 36t197.5 115z" />
    <glyph glyph-name="Adieresis" unicode="&#xc4;" horiz-adv-x="1479" 
d="M543 547h397l-149 483q-7 22 -19 71t-31 126q-13 -54 -25.5 -103t-25.5 -94zM-16 0l505 1464h500l506 -1464h-397l-74 262h-567l-76 -262h-397zM790 1806q0 57 42.5 99.5t101.5 42.5t101 -41.5t42 -100.5q0 -62 -41 -103.5t-102 -41.5t-102.5 42t-41.5 103zM399 1806
q0 57 43.5 99.5t101.5 42.5q60 0 101 -41.5t41 -100.5q0 -63 -40 -104t-102 -41q-60 0 -102.5 42t-42.5 103z" />
    <glyph glyph-name="Aring" unicode="&#xc5;" horiz-adv-x="1479" 
d="M629 1708q0 -46 32 -77.5t78 -31.5q48 0 80.5 31.5t32.5 77.5q0 47 -33 80t-80 33q-45 0 -77.5 -33.5t-32.5 -79.5zM543 547h397l-149 483q-7 22 -19 71t-31 126q-13 -54 -25.5 -103t-25.5 -94zM-16 0l516 1464l159 -4v4q-82 22 -132 89.5t-50 156.5q0 111 76 186.5
t186 75.5q111 0 188 -76.5t77 -185.5q0 -85 -47 -150.5t-130 -95.5v-4l154 4l514 -1464h-397l-74 262h-567l-76 -262h-397z" />
    <glyph glyph-name="Ccedilla" unicode="&#xc7;" horiz-adv-x="1286" 
d="M1217 1407v-436q-82 91 -163.5 133.5t-174.5 42.5q-172 0 -278.5 -117.5t-106.5 -306.5q0 -176 108.5 -292t276.5 -116q93 0 174.5 42.5t163.5 134.5v-437q-95 -46 -189 -69t-190 -23q-120 0 -221.5 28.5t-186.5 86.5q-164 110 -250 277t-86 376q0 168 54.5 305.5
t164.5 249.5q104 107 234.5 160t290.5 53q96 0 190 -23t189 -69zM553 -440v139q80 -22 149.5 -33.5t121.5 -11.5q43 0 64.5 17.5t21.5 54.5q0 32 -28.5 47.5t-90.5 15.5q-21 0 -33 -0.5t-22 -1.5v213h114v-84h19q111 0 170 -49.5t59 -142.5q0 -100 -66 -154.5t-188 -54.5
q-61 0 -134 11t-157 34z" />
    <glyph glyph-name="Eacute" unicode="&#xc9;" horiz-adv-x="1161" 
d="M156 0v1464h897v-321h-508v-254h479v-314h-479v-247h508v-328h-897zM903 1970l-309 -350h-154l182 350h281z" />
    <glyph glyph-name="Ntilde" unicode="&#xd1;" horiz-adv-x="1745" 
d="M156 0v1464h385l553 -753q16 -23 52.5 -92.5t80.5 -165.5q-12 91 -17.5 162t-5.5 126v723h383v-1464h-383l-553 756q-17 23 -53.5 92.5t-79.5 163.5q12 -92 17.5 -163t5.5 -126v-723h-385zM1204 1941q-30 -129 -83 -189t-136 -60q-23 0 -41.5 2.5t-35.5 7.5l-91 26l-3 1
q-52 14 -65 14q-33 0 -54.5 -19.5t-35.5 -62.5h-119q28 128 80.5 189t134.5 61q16 0 38 -4t52 -13l95 -26q12 -5 26 -7t31 -2q32 0 54.5 21t33.5 61h119z" />
    <glyph glyph-name="Odieresis" unicode="&#xd6;" horiz-adv-x="1753" 
d="M1659 729q0 -158 -58 -296t-169 -247q-112 -108 -256 -166.5t-299 -58.5q-157 0 -300.5 58.5t-252.5 166.5q-113 109 -171.5 248t-58.5 295q0 157 58.5 295.5t171.5 247.5q109 108 252.5 166.5t300.5 58.5q156 0 300.5 -58.5t254.5 -166.5t168.5 -247t58.5 -296zM877 299
q166 0 274.5 122t108.5 308q0 184 -110 307t-273 123q-166 0 -274.5 -122.5t-108.5 -307.5q0 -188 107 -309t276 -121zM928 1806q0 57 42.5 99.5t101.5 42.5t101 -41.5t42 -100.5q0 -62 -41 -103.5t-102 -41.5t-102.5 42t-41.5 103zM537 1806q0 57 43.5 99.5t101.5 42.5
q60 0 101 -41.5t41 -100.5q0 -63 -40 -104t-102 -41q-60 0 -102.5 42t-42.5 103z" />
    <glyph glyph-name="Udieresis" unicode="&#xdc;" horiz-adv-x="1597" 
d="M147 1464h398v-712q0 -157 8 -225.5t27 -114.5q23 -56 80 -85.5t139 -29.5t138.5 29.5t80.5 85.5q19 46 27 114.5t8 225.5v100v612h397v-774q0 -241 -29 -355.5t-98 -195.5q-75 -89 -206 -133.5t-318 -44.5q-188 0 -318.5 44.5t-206.5 133.5q-68 81 -97.5 195.5
t-29.5 355.5v152v622zM850 1806q0 57 42.5 99.5t101.5 42.5t101 -41.5t42 -100.5q0 -62 -41 -103.5t-102 -41.5t-102.5 42t-41.5 103zM459 1806q0 57 43.5 99.5t101.5 42.5q60 0 101 -41.5t41 -100.5q0 -63 -40 -104t-102 -41q-60 0 -102.5 42t-42.5 103z" />
    <glyph glyph-name="aacute" unicode="&#xe1;" horiz-adv-x="1352" 
d="M901 506q0 118 -63 187t-172 69t-171.5 -68.5t-62.5 -187.5q0 -118 63 -186t171 -68q109 0 172 68t63 186zM1214 1010v-1010h-327v164q-70 -105 -157.5 -154t-205.5 -49q-202 0 -323 147.5t-121 395.5q0 247 126.5 392.5t340.5 145.5q114 0 196.5 -48.5t141.5 -149.5v166
h329zM965 1497l-309 -350h-154l182 350h281z" />
    <glyph glyph-name="agrave" unicode="&#xe0;" horiz-adv-x="1352" 
d="M901 506q0 118 -63 187t-172 69t-171.5 -68.5t-62.5 -187.5q0 -118 63 -186t171 -68q109 0 172 68t63 186zM1214 1010v-1010h-327v164q-70 -105 -157.5 -154t-205.5 -49q-202 0 -323 147.5t-121 395.5q0 247 126.5 392.5t340.5 145.5q114 0 196.5 -48.5t141.5 -149.5v166
h329zM387 1497h281l182 -350h-154z" />
    <glyph glyph-name="acircumflex" unicode="&#xe2;" horiz-adv-x="1352" 
d="M901 506q0 118 -63 187t-172 69t-171.5 -68.5t-62.5 -187.5q0 -118 63 -186t171 -68q109 0 172 68t63 186zM1214 1010v-1010h-327v164q-70 -105 -157.5 -154t-205.5 -49q-202 0 -323 147.5t-121 395.5q0 247 126.5 392.5t340.5 145.5q114 0 196.5 -48.5t141.5 -149.5v166
h329zM354 1147l183 350h276l182 -350h-153l-166 180l-168 -180h-154z" />
    <glyph glyph-name="adieresis" unicode="&#xe4;" horiz-adv-x="1352" 
d="M901 506q0 118 -63 187t-172 69t-171.5 -68.5t-62.5 -187.5q0 -118 63 -186t171 -68q109 0 172 68t63 186zM1214 1010v-1010h-327v164q-70 -105 -157.5 -154t-205.5 -49q-202 0 -323 147.5t-121 395.5q0 247 126.5 392.5t340.5 145.5q114 0 196.5 -48.5t141.5 -149.5v166
h329zM727 1333q0 57 42.5 99.5t101.5 42.5t101 -41.5t42 -100.5q0 -62 -41 -103.5t-102 -41.5t-102.5 42t-41.5 103zM336 1333q0 57 43.5 99.5t101.5 42.5q60 0 101 -41.5t41 -100.5q0 -63 -40 -104t-102 -41q-60 0 -102.5 42t-42.5 103z" />
    <glyph glyph-name="atilde" unicode="&#xe3;" horiz-adv-x="1352" 
d="M901 506q0 118 -63 187t-172 69t-171.5 -68.5t-62.5 -187.5q0 -118 63 -186t171 -68q109 0 172 68t63 186zM1214 1010v-1010h-327v164q-70 -105 -157.5 -154t-205.5 -49q-202 0 -323 147.5t-121 395.5q0 247 126.5 392.5t340.5 145.5q114 0 196.5 -48.5t141.5 -149.5v166
h329zM1008 1468q-30 -129 -83 -189t-136 -60q-23 0 -41.5 2.5t-35.5 7.5l-91 26l-3 1q-52 14 -65 14q-33 0 -54.5 -19.5t-35.5 -62.5h-119q28 128 80.5 189t134.5 61q16 0 38 -4t52 -13l95 -26q12 -5 26 -7t31 -2q32 0 54.5 21t33.5 61h119z" />
    <glyph glyph-name="aring" unicode="&#xe5;" horiz-adv-x="1352" 
d="M571 1370q0 -46 33.5 -79.5t79.5 -33.5q47 0 79 33t32 80q0 48 -32 80.5t-79 32.5q-46 0 -79.5 -33.5t-33.5 -79.5zM418 1370q0 111 77 188.5t189 77.5q110 0 187 -77.5t77 -188.5t-77 -188.5t-187 -77.5q-112 0 -189 77t-77 189zM901 506q0 118 -63 187t-172 69
t-171.5 -68.5t-62.5 -187.5q0 -118 63 -186t171 -68q109 0 172 68t63 186zM1214 1010v-1010h-327v164q-70 -105 -157.5 -154t-205.5 -49q-202 0 -323 147.5t-121 395.5q0 247 126.5 392.5t340.5 145.5q114 0 196.5 -48.5t141.5 -149.5v166h329z" />
    <glyph glyph-name="ccedilla" unicode="&#xe7;" horiz-adv-x="944" 
d="M856 678q-52 46 -100 67t-101 21q-106 0 -168.5 -70t-62.5 -190q0 -116 65 -185t175 -69q54 0 101.5 21.5t90.5 66.5v-309q-64 -36 -128 -53t-132 -17q-233 0 -377.5 149.5t-144.5 393.5q0 237 147.5 387.5t378.5 150.5q77 0 139 -15t117 -48v-301zM309 -440v139
q80 -22 149.5 -33.5t121.5 -11.5q43 0 64.5 17.5t21.5 54.5q0 32 -28.5 47.5t-90.5 15.5q-21 0 -33 -0.5t-22 -1.5v213h114v-84h19q111 0 170 -49.5t59 -142.5q0 -100 -66 -154.5t-188 -54.5q-61 0 -134 11t-157 34z" />
    <glyph glyph-name="eacute" unicode="&#xe9;" horiz-adv-x="1251" 
d="M827 635q-10 86 -65.5 138t-136.5 52q-87 0 -138.5 -47.5t-68.5 -142.5h409zM1178 434h-768q1 -117 60 -180.5t167 -63.5q81 0 136.5 30.5t84.5 90.5l268 -108q-48 -116 -170 -179t-299 -63q-264 0 -423.5 146.5t-159.5 386.5q0 236 159.5 392t403.5 156q251 0 396 -158
t145 -433v-17zM916 1497l-309 -350h-154l182 350h281z" />
    <glyph glyph-name="egrave" unicode="&#xe8;" horiz-adv-x="1251" 
d="M827 635q-10 86 -65.5 138t-136.5 52q-87 0 -138.5 -47.5t-68.5 -142.5h409zM1178 434h-768q1 -117 60 -180.5t167 -63.5q81 0 136.5 30.5t84.5 90.5l268 -108q-48 -116 -170 -179t-299 -63q-264 0 -423.5 146.5t-159.5 386.5q0 236 159.5 392t403.5 156q251 0 396 -158
t145 -433v-17zM338 1497h281l182 -350h-154z" />
    <glyph glyph-name="ecircumflex" unicode="&#xea;" horiz-adv-x="1251" 
d="M827 635q-10 86 -65.5 138t-136.5 52q-87 0 -138.5 -47.5t-68.5 -142.5h409zM1178 434h-768q1 -117 60 -180.5t167 -63.5q81 0 136.5 30.5t84.5 90.5l268 -108q-48 -116 -170 -179t-299 -63q-264 0 -423.5 146.5t-159.5 386.5q0 236 159.5 392t403.5 156q251 0 396 -158
t145 -433v-17zM305 1147l183 350h276l182 -350h-153l-166 180l-168 -180h-154z" />
    <glyph glyph-name="edieresis" unicode="&#xeb;" horiz-adv-x="1251" 
d="M827 635q-10 86 -65.5 138t-136.5 52q-87 0 -138.5 -47.5t-68.5 -142.5h409zM1178 434h-768q1 -117 60 -180.5t167 -63.5q81 0 136.5 30.5t84.5 90.5l268 -108q-48 -116 -170 -179t-299 -63q-264 0 -423.5 146.5t-159.5 386.5q0 236 159.5 392t403.5 156q251 0 396 -158
t145 -433v-17zM678 1333q0 57 42.5 99.5t101.5 42.5t101 -41.5t42 -100.5q0 -62 -41 -103.5t-102 -41.5t-102.5 42t-41.5 103zM287 1333q0 57 43.5 99.5t101.5 42.5q60 0 101 -41.5t41 -100.5q0 -63 -40 -104t-102 -41q-60 0 -102.5 42t-42.5 103z" />
    <glyph glyph-name="iacute" unicode="&#xed;" horiz-adv-x="639" 
d="M141 0v1010h357v-1010h-357zM608 1497l-309 -350h-154l182 350h281z" />
    <glyph glyph-name="igrave" unicode="&#xec;" horiz-adv-x="639" 
d="M141 0v1010h357v-1010h-357zM30 1497h281l182 -350h-154z" />
    <glyph glyph-name="icircumflex" unicode="&#xee;" horiz-adv-x="639" 
d="M141 0v1010h357v-1010h-357zM-3 1147l183 350h276l182 -350h-153l-166 180l-168 -180h-154z" />
    <glyph glyph-name="idieresis" unicode="&#xef;" horiz-adv-x="639" 
d="M141 0v1010h357v-1010h-357zM370 1333q0 57 42.5 99.5t101.5 42.5t101 -41.5t42 -100.5q0 -62 -41 -103.5t-102 -41.5t-102.5 42t-41.5 103zM-21 1333q0 57 43.5 99.5t101.5 42.5q60 0 101 -41.5t41 -100.5q0 -63 -40 -104t-102 -41q-60 0 -102.5 42t-42.5 103z" />
    <glyph glyph-name="ntilde" unicode="&#xf1;" horiz-adv-x="1337" 
d="M131 0v1010h326v-205q71 123 164 180t223 57q98 0 174.5 -31.5t124.5 -90.5q40 -51 57 -124t17 -218v-578h-357v541q0 121 -39.5 176t-126.5 55q-111 0 -162 -82t-51 -266v-424h-350zM1002 1468q-30 -129 -83 -189t-136 -60q-23 0 -41.5 2.5t-35.5 7.5l-91 26l-3 1
q-52 14 -65 14q-33 0 -54.5 -19.5t-35.5 -62.5h-119q28 128 80.5 189t134.5 61q16 0 38 -4t52 -13l95 -26q12 -5 26 -7t31 -2q32 0 54.5 21t33.5 61h119z" />
    <glyph glyph-name="oacute" unicode="&#xf3;" horiz-adv-x="1276" 
d="M848 502q0 113 -57 178t-154 65q-98 0 -154.5 -65t-56.5 -178t56 -177.5t155 -64.5q98 0 154.5 64.5t56.5 177.5zM1202 502q0 -109 -42.5 -207t-123.5 -176q-82 -78 -183.5 -118t-215.5 -40q-116 0 -217.5 40t-181.5 118q-80 76 -122 174.5t-42 208.5q0 111 41.5 209
t122.5 176q79 77 180.5 116t218.5 39t218 -39t181 -116q82 -79 124 -177t42 -208zM928 1497l-309 -350h-154l182 350h281z" />
    <glyph glyph-name="ograve" unicode="&#xf2;" horiz-adv-x="1276" 
d="M848 502q0 113 -57 178t-154 65q-98 0 -154.5 -65t-56.5 -178t56 -177.5t155 -64.5q98 0 154.5 64.5t56.5 177.5zM1202 502q0 -109 -42.5 -207t-123.5 -176q-82 -78 -183.5 -118t-215.5 -40q-116 0 -217.5 40t-181.5 118q-80 76 -122 174.5t-42 208.5q0 111 41.5 209
t122.5 176q79 77 180.5 116t218.5 39t218 -39t181 -116q82 -79 124 -177t42 -208zM350 1497h281l182 -350h-154z" />
    <glyph glyph-name="ocircumflex" unicode="&#xf4;" horiz-adv-x="1276" 
d="M848 502q0 113 -57 178t-154 65q-98 0 -154.5 -65t-56.5 -178t56 -177.5t155 -64.5q98 0 154.5 64.5t56.5 177.5zM1202 502q0 -109 -42.5 -207t-123.5 -176q-82 -78 -183.5 -118t-215.5 -40q-116 0 -217.5 40t-181.5 118q-80 76 -122 174.5t-42 208.5q0 111 41.5 209
t122.5 176q79 77 180.5 116t218.5 39t218 -39t181 -116q82 -79 124 -177t42 -208zM317 1147l183 350h276l182 -350h-153l-166 180l-168 -180h-154z" />
    <glyph glyph-name="odieresis" unicode="&#xf6;" horiz-adv-x="1276" 
d="M848 502q0 113 -57 178t-154 65q-98 0 -154.5 -65t-56.5 -178t56 -177.5t155 -64.5q98 0 154.5 64.5t56.5 177.5zM1202 502q0 -109 -42.5 -207t-123.5 -176q-82 -78 -183.5 -118t-215.5 -40q-116 0 -217.5 40t-181.5 118q-80 76 -122 174.5t-42 208.5q0 111 41.5 209
t122.5 176q79 77 180.5 116t218.5 39t218 -39t181 -116q82 -79 124 -177t42 -208zM690 1333q0 57 42.5 99.5t101.5 42.5t101 -41.5t42 -100.5q0 -62 -41 -103.5t-102 -41.5t-102.5 42t-41.5 103zM299 1333q0 57 43.5 99.5t101.5 42.5q60 0 101 -41.5t41 -100.5
q0 -63 -40 -104t-102 -41q-60 0 -102.5 42t-42.5 103z" />
    <glyph glyph-name="otilde" unicode="&#xf5;" horiz-adv-x="1276" 
d="M848 502q0 113 -57 178t-154 65q-98 0 -154.5 -65t-56.5 -178t56 -177.5t155 -64.5q98 0 154.5 64.5t56.5 177.5zM1202 502q0 -109 -42.5 -207t-123.5 -176q-82 -78 -183.5 -118t-215.5 -40q-116 0 -217.5 40t-181.5 118q-80 76 -122 174.5t-42 208.5q0 111 41.5 209
t122.5 176q79 77 180.5 116t218.5 39t218 -39t181 -116q82 -79 124 -177t42 -208zM971 1468q-30 -129 -83 -189t-136 -60q-23 0 -41.5 2.5t-35.5 7.5l-91 26l-3 1q-52 14 -65 14q-33 0 -54.5 -19.5t-35.5 -62.5h-119q28 128 80.5 189t134.5 61q16 0 38 -4t52 -13l95 -26
q12 -5 26 -7t31 -2q32 0 54.5 21t33.5 61h119z" />
    <glyph glyph-name="uacute" unicode="&#xfa;" horiz-adv-x="1292" 
d="M1167 1010v-516q0 -171 -27.5 -253.5t-92.5 -146.5q-67 -67 -167 -100t-235 -33q-134 0 -233.5 33t-169.5 100q-65 62 -92 145.5t-27 254.5v516h340v-539q0 -127 42 -183.5t136 -56.5q95 0 136.5 55.5t41.5 184.5v539h348zM936 1497l-309 -350h-154l182 350h281z" />
    <glyph glyph-name="ugrave" unicode="&#xf9;" horiz-adv-x="1292" 
d="M1167 1010v-516q0 -171 -27.5 -253.5t-92.5 -146.5q-67 -67 -167 -100t-235 -33q-134 0 -233.5 33t-169.5 100q-65 62 -92 145.5t-27 254.5v516h340v-539q0 -127 42 -183.5t136 -56.5q95 0 136.5 55.5t41.5 184.5v539h348zM358 1497h281l182 -350h-154z" />
    <glyph glyph-name="ucircumflex" unicode="&#xfb;" horiz-adv-x="1292" 
d="M1167 1010v-516q0 -171 -27.5 -253.5t-92.5 -146.5q-67 -67 -167 -100t-235 -33q-134 0 -233.5 33t-169.5 100q-65 62 -92 145.5t-27 254.5v516h340v-539q0 -127 42 -183.5t136 -56.5q95 0 136.5 55.5t41.5 184.5v539h348zM325 1147l183 350h276l182 -350h-153l-166 180
l-168 -180h-154z" />
    <glyph glyph-name="udieresis" unicode="&#xfc;" horiz-adv-x="1292" 
d="M1167 1010v-516q0 -171 -27.5 -253.5t-92.5 -146.5q-67 -67 -167 -100t-235 -33q-134 0 -233.5 33t-169.5 100q-65 62 -92 145.5t-27 254.5v516h340v-539q0 -127 42 -183.5t136 -56.5q95 0 136.5 55.5t41.5 184.5v539h348zM698 1333q0 57 42.5 99.5t101.5 42.5t101 -41.5
t42 -100.5q0 -62 -41 -103.5t-102 -41.5t-102.5 42t-41.5 103zM307 1333q0 57 43.5 99.5t101.5 42.5q60 0 101 -41.5t41 -100.5q0 -63 -40 -104t-102 -41q-60 0 -102.5 42t-42.5 103z" />
    <glyph glyph-name="dagger" unicode="&#x2020;" horiz-adv-x="1219" 
d="M446 -414v1059h-376v316h376v503h326v-503h377v-316h-377v-1059h-326z" />
    <glyph glyph-name="degree" unicode="&#xb0;" horiz-adv-x="674" 
d="M338 1321q-69 0 -117.5 -48t-48.5 -116q0 -70 48 -118t118 -48q68 0 116 49t48 117t-48 116t-116 48zM338 1466q129 0 220 -91t91 -220q0 -128 -91.5 -219.5t-221.5 -91.5q-129 0 -219 90.5t-90 220.5q0 131 90.5 221t220.5 90z" />
    <glyph glyph-name="cent" unicode="&#xa2;" horiz-adv-x="1280" 
d="M977 887q-54 47 -102 68.5t-99 21.5q-106 0 -168.5 -70.5t-62.5 -191.5q0 -118 64.5 -187t174.5 -69q56 0 102.5 21t90.5 67v-309q-55 -28 -107.5 -44t-103.5 -20v-203h-115v203q-225 42 -340.5 178t-115.5 361q0 218 121.5 361.5t334.5 176.5v170h115v-168
q59 -6 111.5 -21.5t99.5 -41.5v-303z" />
    <glyph glyph-name="sterling" unicode="&#xa3;" horiz-adv-x="1280" 
d="M127 764h162q-56 76 -82.5 151t-26.5 158q0 178 140 292t364 114q235 0 363.5 -121.5t134.5 -349.5h-344q-2 92 -42.5 140t-117.5 48q-66 0 -106 -40t-40 -105q0 -49 61 -173q34 -71 52 -114h334v-141h-315q0 -94 -42.5 -156.5t-129.5 -97.5l4 -21q16 3 32.5 4.5
t32.5 1.5q58 0 148 -27.5t127 -27.5q50 0 82 22.5t61 77.5l240 -190q-52 -123 -147.5 -185.5t-229.5 -62.5q-91 0 -230.5 51t-187.5 51q-46 0 -84 -21t-78 -69l-180 222q51 73 109.5 113.5t125.5 47.5q30 36 45 76t15 86q0 20 -4 45.5t-13 59.5h-233v141z" />
    <glyph glyph-name="section" unicode="&#xa7;" horiz-adv-x="1219" 
d="M283 844q-77 35 -114.5 100.5t-37.5 163.5q0 178 134 284.5t360 106.5q228 0 352.5 -109.5t130.5 -314.5h-371v21q0 66 -36.5 102.5t-102.5 36.5q-63 0 -101 -37t-38 -98q0 -110 193 -132q55 -7 86 -12q219 -33 316 -132t97 -287q0 -126 -54 -209.5t-161 -122.5
q78 -37 114.5 -101t36.5 -163q0 -179 -133.5 -286.5t-359.5 -107.5q-230 0 -355 113t-128 324h370v-23q0 -72 36 -110.5t104 -38.5q62 0 100.5 37t38.5 98q0 110 -197 134q-53 7 -81 11q-221 34 -318.5 133.5t-97.5 288.5q0 122 56 207.5t161 122.5zM612 707
q-77 0 -127.5 -50.5t-50.5 -128.5q0 -83 49 -136.5t123 -53.5q77 0 128.5 52.5t51.5 129.5q0 80 -50 133.5t-124 53.5z" />
    <glyph glyph-name="bullet" unicode="&#x2022;" horiz-adv-x="1208" 
d="M307 762q0 123 87 209t210 86q122 0 208.5 -86.5t86.5 -208.5t-87.5 -209.5t-209.5 -87.5q-123 0 -209 87t-86 210z" />
    <glyph glyph-name="paragraph" unicode="&#xb6;" 
d="M997 1479v-123h-106v-1356h-176v1356h-150v-1356h-174v784q-164 6 -263 101t-99 245q0 158 106 253.5t283 95.5h579z" />
    <glyph glyph-name="germandbls" unicode="&#xdf;" horiz-adv-x="1352" 
d="M137 0v1028q0 160 23.5 244t79.5 145q65 72 176 112t248 40q249 0 388.5 -103.5t139.5 -287.5q0 -116 -62.5 -193t-185.5 -113q158 -17 247 -123t89 -278q0 -236 -142 -365t-403 -129q-18 0 -55.5 1.5t-56.5 1.5v266q9 -1 20.5 -1.5t32.5 -0.5q123 0 186.5 63.5
t63.5 188.5q0 121 -68 184t-199 63q-4 0 -16.5 -1t-19.5 -1v226h8q119 0 178 45t59 137q0 75 -47.5 118.5t-130.5 43.5q-76 0 -124 -32t-62 -91q-9 -39 -13 -103t-4 -190v-94v-801h-350z" />
    <glyph glyph-name="registered" unicode="&#xae;" horiz-adv-x="1706" 
d="M762 1022v-219h80q74 0 110.5 26.5t36.5 79.5q0 59 -38 86t-122 27h-67zM537 1163h329q174 0 264.5 -60t90.5 -177q0 -81 -46 -139t-128 -82l182 -361h-248l-154 326h-65v-326h-225v819zM854 1350q-124 0 -232 -44t-194 -128q-90 -90 -137 -203t-47 -238q0 -121 44 -229
t130 -195q87 -90 199 -138t235 -48q121 0 232.5 45.5t199.5 130.5t134 196.5t46 237.5q0 124 -44 233.5t-128 194.5q-89 91 -200.5 138t-237.5 47zM852 1485q156 0 294 -57.5t245 -167.5q101 -104 154.5 -238t53.5 -285q0 -155 -56.5 -291t-164.5 -239q-109 -105 -245 -161
t-281 -56q-151 0 -287 58t-243 169q-105 108 -160.5 241.5t-55.5 278.5q0 151 59 290t169 247q105 104 237 157.5t281 53.5z" />
    <glyph glyph-name="copyright" unicode="&#xa9;" horiz-adv-x="1706" 
d="M1221 891h-213q-7 67 -47.5 104t-108.5 37q-83 0 -129.5 -77t-46.5 -216q0 -140 47.5 -212t138.5 -72q67 0 106.5 40.5t45.5 114.5h215q-6 -143 -107.5 -230t-263.5 -87q-190 0 -301 117.5t-111 320.5q0 207 111 329t299 122q157 0 257 -80t108 -211zM854 1350
q-126 0 -235 -45.5t-195 -133.5q-88 -89 -135 -201t-47 -233q0 -119 47 -230.5t135 -199.5q87 -87 198 -133.5t232 -46.5t234 47t202 135q86 84 130 193t44 235q0 125 -45 235.5t-131 196.5q-88 89 -198.5 135t-235.5 46zM852 1485q154 0 289.5 -56t242.5 -163
q106 -106 160.5 -240.5t54.5 -288.5q0 -153 -54 -287t-159 -237q-109 -108 -247 -165.5t-287 -57.5q-148 0 -283.5 57t-242.5 164t-163.5 241.5t-56.5 284.5q0 148 57.5 285t164.5 246q105 106 238 161.5t286 55.5z" />
    <glyph glyph-name="trademark" unicode="&#x2122;" horiz-adv-x="1706" 
d="M797 1464h223l113 -303l114 303h221v-551h-155v390l-146 -390h-65l-150 390v-390h-155v551zM188 1464h502v-127h-164v-424h-174v424h-164v127z" />
    <glyph glyph-name="acute" unicode="&#xb4;" 
d="M801 1497l-309 -350h-154l182 350h281z" />
    <glyph glyph-name="dieresis" unicode="&#xa8;" 
d="M563 1333q0 57 42.5 99.5t101.5 42.5t101 -41.5t42 -100.5q0 -62 -41 -103.5t-102 -41.5t-102.5 42t-41.5 103zM172 1333q0 57 43.5 99.5t101.5 42.5q60 0 101 -41.5t41 -100.5q0 -63 -40 -104t-102 -41q-60 0 -102.5 42t-42.5 103z" />
    <glyph glyph-name="notequal" unicode="&#x2260;" horiz-adv-x="1706" 
d="M1194 1251l168 -137l-135 -168h225v-221h-377l-180 -227h557v-222h-704l-246 -307l-170 137l135 170h-213v222h360l183 227h-543v221h694z" />
    <glyph glyph-name="AE" unicode="&#xc6;" horiz-adv-x="1763" 
d="M514 547h289l-94 321q-8 28 -20.5 77t-29.5 120q-11 -48 -23 -94.5t-28 -102.5zM-33 0l506 1464h875l98 -321h-473l84 -254h467l96 -314h-461l82 -247h455l98 -328h-831l-76 262h-451l-74 -262h-395z" />
    <glyph glyph-name="Oslash" unicode="&#xd8;" horiz-adv-x="1753" 
d="M643 403q47 -39 105.5 -58t128.5 -19q167 0 283 119t116 292q0 73 -20 132.5t-60 105.5zM1098 1067q-50 36 -104.5 54t-116.5 18q-166 0 -282 -118.5t-116 -289.5q0 -65 17 -122t53 -111zM205 -47l-92 94l170 176q-96 114 -142.5 239.5t-46.5 268.5q0 156 59 295t171 248
q113 110 257 167.5t308 57.5q135 0 250 -39.5t219 -122.5l155 162l97 -94l-152 -158q97 -102 149 -235t52 -281q0 -156 -59 -295t-170 -248q-111 -108 -253 -165.5t-300 -57.5q-146 0 -268 42t-228 128z" />
    <glyph glyph-name="infinity" unicode="&#x221e;" horiz-adv-x="1706" 
d="M956 561q43 -67 102 -101t132 -34q90 0 146.5 50.5t56.5 129.5q0 77 -51.5 127.5t-127.5 50.5q-72 0 -131.5 -50.5t-126.5 -172.5zM752 657q-43 67 -101 100.5t-133 33.5q-90 0 -146.5 -50t-56.5 -129q0 -77 51 -127.5t128 -50.5q71 0 132 52.5t126 170.5zM856 442
q-68 -130 -147.5 -193t-176.5 -63q-139 0 -238 121.5t-99 300.5q0 188 87.5 305t227.5 117q90 0 166.5 -56.5t175.5 -199.5q71 132 150 195t174 63q140 0 238.5 -121t98.5 -301q0 -189 -87.5 -306.5t-227.5 -117.5q-91 0 -166 55t-176 201z" />
    <glyph glyph-name="plusminus" unicode="&#xb1;" horiz-adv-x="1706" 
d="M254 213h1198v-231h-1198v231zM735 1241h238v-319h479v-232h-479v-319h-238v319h-481v232h481v319z" />
    <glyph glyph-name="lessequal" unicode="&#x2264;" horiz-adv-x="1706" 
d="M256 213h1196v-229h-1196v229zM1450 1257v-239l-776 -240l776 -239v-240l-1194 379v201z" />
    <glyph glyph-name="greaterequal" unicode="&#x2265;" horiz-adv-x="1706" 
d="M256 213h1196v-229h-1196v229zM258 1257l1192 -378v-201l-1192 -379v240l776 239l-776 240v239z" />
    <glyph glyph-name="yen" unicode="&#xa5;" horiz-adv-x="1335" 
d="M496 0v502h-486v203h449l-99 149h-350v203h217l-256 395h387l250 -414q15 -23 31 -61t31 -84q12 41 27 77.5t32 65.5l252 416h385l-258 -395h219v-203h-354l-94 -149h448v-203h-485v-502h-346z" />
    <glyph glyph-name="mu" unicode="&#xb5;" horiz-adv-x="1315" 
d="M193 1090h358l-80 -529q-6 -41 -9 -77.5t-3 -65.5q0 -85 35.5 -127.5t107.5 -42.5q88 0 138.5 68.5t74.5 220.5l88 553h357l-175 -1090h-321l18 125q-40 -75 -89.5 -108t-119.5 -33q-59 0 -106.5 31t-77.5 89l-82 -532h-352z" />
    <glyph glyph-name="partialdiff" unicode="&#x2202;" horiz-adv-x="1114" 
d="M766 684q21 113 32 206t11 150q0 87 -29.5 148t-68.5 61q-35 0 -132 -93t-180 -93q-48 0 -80 33.5t-32 83.5q0 69 93 125.5t220 56.5q210 0 332.5 -161t122.5 -441q0 -344 -162.5 -564.5t-417.5 -220.5q-182 0 -299 116.5t-117 299.5q0 203 119.5 336t298.5 133
q101 0 170.5 -42.5t118.5 -133.5zM698 532q0 114 -36.5 176t-104.5 62q-96 0 -160.5 -136.5t-64.5 -346.5q0 -116 36.5 -176t106.5 -60q97 0 160 135.5t63 345.5z" />
    <glyph glyph-name="summation" unicode="&#x2211;" horiz-adv-x="1520" 
d="M72 1473h1335v-302h-838l596 -608l-587 -651h895v-305h-1424v184l684 756l-661 665v261z" />
    <glyph glyph-name="product" unicode="&#x220f;" horiz-adv-x="1645" 
d="M145 1473h1348v-1866h-399v1532h-549v-1532h-400v1866z" />
    <glyph glyph-name="pi" unicode="&#x3c0;" horiz-adv-x="1530" 
d="M1538 1090l-39 -232h-178l-135 -858h-357l134 858h-232l-135 -858h-354l133 858h-27q-42 0 -70.5 -35.5t-36.5 -97.5h-235q33 209 124.5 287t311.5 78h1096z" />
    <glyph glyph-name="integral" unicode="&#x222b;" horiz-adv-x="1249" 
d="M362 -248q99 0 119 667q3 101 4 154q17 523 130.5 753t349.5 230q105 0 170 -53t65 -137q0 -64 -41 -103.5t-106 -39.5q-64 0 -96.5 38.5t-32.5 112.5q0 38 -7.5 49t-25.5 11q-101 0 -124 -667q-2 -60 -3 -91q-11 -329 -30.5 -472.5t-57.5 -244.5q-62 -166 -159.5 -249
t-229.5 -83q-107 0 -171.5 52t-64.5 139q0 65 42 104t112 39q60 0 92.5 -36t32.5 -103q0 -12 -2 -24v-3q0 -24 8 -33.5t26 -9.5z" />
    <glyph glyph-name="ordfeminine" unicode="&#xaa;" horiz-adv-x="1014" 
d="M676 1112q0 83 -47.5 130.5t-128.5 47.5q-82 0 -129 -47.5t-47 -130.5t47 -130.5t129 -47.5q81 0 128.5 47.5t47.5 130.5zM911 1464v-706h-245v114q-52 -73 -117.5 -107t-155.5 -34q-151 0 -242.5 103.5t-91.5 275.5q0 173 95 275t256 102q87 0 149 -34t105 -105v116h247
z" />
    <glyph glyph-name="ordmasculine" unicode="&#xba;" horiz-adv-x="956" 
d="M637 1110q0 78 -43 124t-117 46q-73 0 -115.5 -45.5t-42.5 -124.5q0 -80 42 -125t116 -45q75 0 117.5 45.5t42.5 124.5zM901 1110q0 -78 -31 -146t-92 -122q-62 -55 -138.5 -83t-162.5 -28t-162 28t-137 83q-60 53 -91.5 122t-31.5 146q0 78 31 146t92 122
q60 54 135.5 81.5t163.5 27.5t165 -27.5t136 -81.5q61 -55 92 -123.5t31 -144.5z" />
    <glyph glyph-name="Omega" unicode="&#x3a9;" horiz-adv-x="1645" 
d="M1266 307h333v-307h-636v352q92 82 142 196.5t50 246.5q0 182 -90 288.5t-244 106.5q-153 0 -243.5 -107.5t-90.5 -289.5q0 -132 50 -246.5t143 -194.5v-352h-635v307h332q-132 95 -200 229.5t-68 299.5q0 303 195.5 489t516.5 186q323 0 518 -185t195 -490
q0 -165 -68 -299.5t-200 -229.5z" />
    <glyph glyph-name="ae" unicode="&#xe6;" horiz-adv-x="1864" 
d="M1423 633q-10 86 -65.5 138t-136.5 52q-87 0 -138.5 -47.5t-68.5 -142.5h409zM725 309q0 60 -43.5 94.5t-118.5 34.5q-72 0 -117 -34t-45 -87q0 -67 37.5 -102t110.5 -35q82 0 129 34.5t47 94.5zM866 895q65 75 151.5 111t203.5 36q256 0 404.5 -157.5t148.5 -433.5v-17
h-768q1 -117 60 -180.5t167 -63.5q81 0 137 30.5t84 88.5l268 -106q-50 -117 -171.5 -179.5t-301.5 -62.5q-145 0 -243 39t-158 121q-59 -75 -153.5 -113.5t-223.5 -38.5q-193 0 -299 88t-106 246q0 156 102 250t270 94q88 0 159 -18.5t130 -57.5q0 5 1 14.5t1 14.5
q0 95 -62.5 140.5t-191.5 45.5q-94 0 -180.5 -19.5t-151.5 -55.5l-2 262q99 35 190.5 52t178.5 17q127 0 213.5 -35.5t142.5 -111.5z" />
    <glyph glyph-name="oslash" unicode="&#xf8;" horiz-adv-x="1276" 
d="M776 717q-28 22 -61.5 32.5t-79.5 10.5q-99 0 -159 -71.5t-60 -188.5q0 -47 5.5 -76t18.5 -51zM502 293q25 -23 60 -35t79 -12q101 0 161 70.5t60 189.5q0 32 -5.5 64.5t-16.5 64.5zM184 -47l-84 84l111 113q-70 84 -103.5 170.5t-33.5 183.5q0 110 41.5 207.5
t122.5 175.5q79 76 182 116.5t217 40.5q95 0 182 -27.5t162 -82.5l133 137l86 -76l-131 -139q65 -69 99 -160t34 -192q0 -110 -42.5 -208.5t-123.5 -174.5q-79 -77 -182 -117.5t-217 -40.5q-102 0 -188.5 27.5t-147.5 79.5z" />
    <glyph glyph-name="questiondown" unicode="&#xbf;" horiz-adv-x="1239" 
d="M834 1329q0 -85 -59 -144t-144 -59q-86 0 -143.5 58.5t-57.5 144.5t58 144.5t143 58.5q84 0 143.5 -59t59.5 -144zM446 997h345v-413h-107q-112 0 -171.5 -46.5t-59.5 -134.5q0 -68 45.5 -114.5t111.5 -46.5q70 0 109.5 37.5t44.5 109.5h342v-4q0 -196 -139 -313
t-373 -117q-212 0 -341.5 123.5t-129.5 324.5q0 167 89.5 272t233.5 109v213z" />
    <glyph glyph-name="exclamdown" unicode="&#xa1;" horiz-adv-x="702" 
d="M166 1006h371v-1045h-371v1045zM150 1329q0 85 58 144t142 59q85 0 144 -59t59 -144q0 -86 -58.5 -144.5t-144.5 -58.5q-85 0 -142.5 59t-57.5 144z" />
    <glyph glyph-name="logicalnot" unicode="&#xac;" horiz-adv-x="1706" 
d="M254 866h1198v-501h-229v274h-969v227z" />
    <glyph glyph-name="radical" unicode="&#x221a;" horiz-adv-x="1366" 
d="M1155 1714h215v-149h-96l-590 -1606h-119l-307 846l-145 -55l-37 129l360 127l223 -635z" />
    <glyph glyph-name="florin" unicode="&#x192;" horiz-adv-x="1280" 
d="M156 -117q16 -4 31.5 -6t31.5 -2q121 0 178 341q8 49 13 77l67 397h-186l41 248h186l27 152v0q41 231 141 313q48 39 112 58.5t144 19.5q44 0 90.5 -7.5t93.5 -21.5l-45 -260q-29 13 -49.5 19t-36.5 6q-48 0 -74 -31.5t-40 -110.5l-23 -137h180l-41 -248h-182l-86 -518
q-57 -345 -153.5 -453t-307.5 -108q-37 0 -79 5t-91 15z" />
    <glyph glyph-name="approxequal" unicode="&#x2248;" horiz-adv-x="1706" 
d="M1530 602v-254q-105 -71 -196 -104t-181 -33t-283 65.5t-309 65.5q-82 0 -172.5 -37t-210.5 -121v254q111 74 209 109t195 35q115 0 304.5 -65.5t272.5 -65.5t170 35t201 116zM1530 1036v-254q-107 -70 -197 -102.5t-178 -32.5q-91 0 -284 64.5t-310 64.5q-84 0 -172 -36
t-211 -122v256q112 74 209 108t195 34q115 0 304.5 -65.5t272.5 -65.5t170.5 35.5t200.5 115.5z" />
    <glyph glyph-name="Delta" unicode="&#x2206;" horiz-adv-x="1468" 
d="M733 1059l-262 -774h526zM537 1473h395l541 -1473h-1475z" />
    <glyph glyph-name="guillemotleft" unicode="&#xab;" horiz-adv-x="1114" 
d="M403 991l193 -133l-264 -356l264 -348l-193 -140l-358 488zM879 991l190 -133l-262 -356l262 -348l-190 -140l-361 488z" />
    <glyph glyph-name="guillemotright" unicode="&#xbb;" horiz-adv-x="1114" 
d="M709 991l360 -489l-360 -488l-191 140l262 348l-262 356zM236 991l358 -489l-358 -488l-191 140l262 348l-262 356z" />
    <glyph glyph-name="ellipsis" unicode="&#x2026;" horiz-adv-x="2048" 
d="M142 164q0 85 57.5 143t142.5 58q87 0 145 -58t58 -143t-58.5 -144t-144.5 -59q-84 0 -142 59t-58 144zM824 164q0 85 57.5 143t142.5 58q87 0 145 -58t58 -143t-58.5 -144t-144.5 -59q-84 0 -142 59t-58 144zM1508 164q0 85 57.5 143t142.5 58q87 0 145 -58t58 -143
t-58.5 -144t-144.5 -59q-84 0 -142 59t-58 144z" />
    <glyph glyph-name="nonbreakingspace" unicode="&#xa0;" horiz-adv-x="1280" 
 />
    <glyph glyph-name="Agrave" unicode="&#xc0;" horiz-adv-x="1479" 
d="M543 547h397l-149 483q-7 22 -19 71t-31 126q-13 -54 -25.5 -103t-25.5 -94zM-16 0l505 1464h500l506 -1464h-397l-74 262h-567l-76 -262h-397zM450 1970h281l182 -350h-154z" />
    <glyph glyph-name="Atilde" unicode="&#xc3;" horiz-adv-x="1479" 
d="M543 547h397l-149 483q-7 22 -19 71t-31 126q-13 -54 -25.5 -103t-25.5 -94zM-16 0l505 1464h500l506 -1464h-397l-74 262h-567l-76 -262h-397zM1071 1941q-30 -129 -83 -189t-136 -60q-23 0 -41.5 2.5t-35.5 7.5l-91 26l-3 1q-52 14 -65 14q-33 0 -54.5 -19.5
t-35.5 -62.5h-119q28 128 80.5 189t134.5 61q16 0 38 -4t52 -13l95 -26q12 -5 26 -7t31 -2q32 0 54.5 21t33.5 61h119z" />
    <glyph glyph-name="Otilde" unicode="&#xd5;" horiz-adv-x="1753" 
d="M1659 729q0 -158 -58 -296t-169 -247q-112 -108 -256 -166.5t-299 -58.5q-157 0 -300.5 58.5t-252.5 166.5q-113 109 -171.5 248t-58.5 295q0 157 58.5 295.5t171.5 247.5q109 108 252.5 166.5t300.5 58.5q156 0 300.5 -58.5t254.5 -166.5t168.5 -247t58.5 -296zM877 299
q166 0 274.5 122t108.5 308q0 184 -110 307t-273 123q-166 0 -274.5 -122.5t-108.5 -307.5q0 -188 107 -309t276 -121zM1209 1941q-30 -129 -83 -189t-136 -60q-23 0 -41.5 2.5t-35.5 7.5l-91 26l-3 1q-52 14 -65 14q-33 0 -54.5 -19.5t-35.5 -62.5h-119q28 128 80.5 189
t134.5 61q16 0 38 -4t52 -13l95 -26q12 -5 26 -7t31 -2q32 0 54.5 21t33.5 61h119z" />
    <glyph glyph-name="OE" unicode="&#x152;" horiz-adv-x="2224" 
d="M877 289q176 0 285.5 122t109.5 320t-110.5 321.5t-284.5 123.5q-171 0 -283.5 -127t-112.5 -318q0 -194 110.5 -318t285.5 -124zM1296 1464h861v-321h-508v-254h479v-314h-479v-247h508v-328h-861v199q-88 -122 -205 -180t-276 -58q-149 0 -271 50.5t-225 154.5
q-112 114 -168.5 256t-56.5 309q0 164 58.5 312.5t164.5 252.5q105 104 237.5 155.5t297.5 51.5q143 0 255 -52t189 -155v168z" />
    <glyph glyph-name="oe" unicode="&#x153;" horiz-adv-x="2009" 
d="M1178 623h409q-10 90 -65.5 143t-137.5 53q-87 0 -139 -49t-67 -147zM866 502q0 124 -58.5 195t-160.5 71t-161.5 -71.5t-59.5 -194.5t59 -193.5t162 -70.5q102 0 160.5 70t58.5 194zM1018 883q62 82 154.5 121.5t220.5 39.5q253 0 398.5 -159t145.5 -439v-24h-765
q1 -103 63 -163t166 -60q80 0 136 31t83 92l268 -111q-50 -120 -172.5 -185t-302.5 -65q-147 0 -244.5 39t-156.5 121q-59 -83 -152.5 -121.5t-236.5 -38.5q-240 0 -394.5 149.5t-154.5 381.5q0 237 157 394.5t390 157.5q130 0 227.5 -39.5t169.5 -121.5z" />
    <glyph glyph-name="endash" unicode="&#x2013;" 
d="M0 367v272h1024v-272h-1024z" />
    <glyph glyph-name="emdash" unicode="&#x2014;" horiz-adv-x="2048" 
d="M0 367v272h2048v-272h-2048z" />
    <glyph glyph-name="quotedblleft" unicode="&#x201c;" horiz-adv-x="1157" 
d="M918 838h-373l309 626h276zM401 838h-374l309 626h276z" />
    <glyph glyph-name="quotedblright" unicode="&#x201d;" horiz-adv-x="1157" 
d="M240 1464h372l-309 -626h-276zM756 1464h374l-309 -626h-276z" />
    <glyph glyph-name="quoteleft" unicode="&#x2018;" horiz-adv-x="639" 
d="M401 838h-374l309 626h276z" />
    <glyph glyph-name="quoteright" unicode="&#x2019;" horiz-adv-x="639" 
d="M240 1464h372l-309 -626h-276z" />
    <glyph glyph-name="divide" unicode="&#xf7;" horiz-adv-x="1706" 
d="M854 371q68 0 116 -48.5t48 -117.5q0 -68 -47.5 -116t-116.5 -48t-117.5 48t-48.5 116t49 117t117 49zM254 727h1198v-231h-1198v231zM854 1182q67 0 115.5 -49t48.5 -117t-48.5 -116t-117.5 -48t-116.5 48t-47.5 116t49 117t117 49z" />
    <glyph glyph-name="lozenge" unicode="&#x25ca;" horiz-adv-x="1012" 
d="M506 1409l-385 -817l385 -825l385 825zM506 1653l500 -1061l-500 -1069l-500 1069z" />
    <glyph glyph-name="ydieresis" unicode="&#xff;" horiz-adv-x="1090" 
d="M76 -446l284 600l-407 856h395l141 -365q18 -46 30 -85.5t18 -73.5q6 36 17.5 74.5t29.5 84.5l143 365h381l-635 -1456h-397zM596 1333q0 57 42.5 99.5t101.5 42.5t101 -41.5t42 -100.5q0 -62 -41 -103.5t-102 -41.5t-102.5 42t-41.5 103zM205 1333q0 57 43.5 99.5
t101.5 42.5q60 0 101 -41.5t41 -100.5q0 -63 -40 -104t-102 -41q-60 0 -102.5 42t-42.5 103z" />
    <glyph glyph-name="Ydieresis" unicode="&#x178;" horiz-adv-x="1223" 
d="M416 0v668l-512 796h458l197 -377q2 -3 6 -11q31 -59 43 -113q10 49 43 109q6 11 8 15l195 377h459l-512 -796v-668h-385zM663 1806q0 57 42.5 99.5t101.5 42.5t101 -41.5t42 -100.5q0 -62 -41 -103.5t-102 -41.5t-102.5 42t-41.5 103zM272 1806q0 57 43.5 99.5
t101.5 42.5q60 0 101 -41.5t41 -100.5q0 -63 -40 -104t-102 -41q-60 0 -102.5 42t-42.5 103z" />
    <glyph glyph-name="fraction" unicode="&#x2215;" horiz-adv-x="342" 
d="M-342 -39l836 1518h188l-840 -1518h-184z" />
    <glyph glyph-name="currency" unicode="&#xa4;" horiz-adv-x="1280" 
d="M1225 406l-13 -351q-83 -46 -172 -70t-178 -24q-273 0 -456.5 153.5t-231.5 422.5h-174l27 122l131 1q-1 11 -1.5 25t-0.5 40q0 11 2 43q1 15 2 25h-160l27 125h147q55 263 238.5 412t453.5 149q94 0 183.5 -27t167.5 -78v-346q-72 71 -152.5 107t-169.5 36
q-123 0 -211 -66.5t-125 -186.5h498l-43 -125h-477q-3 -24 -5 -44.5t-2 -33.5q0 -15 0.5 -28t1.5 -27l439 -1l-45 -122h-375q29 -124 121.5 -195.5t222.5 -71.5q80 0 159 32.5t171 103.5z" />
    <glyph glyph-name="guilsinglleft" unicode="&#x2039;" horiz-adv-x="639" 
d="M403 14l-358 488l358 489l193 -139l-264 -350l264 -355z" />
    <glyph glyph-name="guilsinglright" unicode="&#x203a;" horiz-adv-x="639" 
d="M236 14l-191 133l262 355l-262 350l191 139l360 -489z" />
    <glyph glyph-name="fi" unicode="&#xf001;" horiz-adv-x="1346" 
d="M829 1325q0 81 57.5 138t139.5 57q83 0 140 -56t57 -139t-57.5 -141t-139.5 -58q-80 0 -138.5 59t-58.5 140zM848 0v1010h356v-1010h-356zM166 0v758h-152v252h152v207q0 176 96 265t287 89q27 0 64.5 -5t80.5 -14v-272q-24 9 -44.5 13.5t-37.5 4.5q-50 0 -73 -30
t-23 -97v-161h178v-252h-178v-758h-350z" />
    <glyph glyph-name="fi" unicode="&#xfb01;" horiz-adv-x="1346" 
d="M829 1325q0 81 57.5 138t139.5 57q83 0 140 -56t57 -139t-57.5 -141t-139.5 -58q-80 0 -138.5 59t-58.5 140zM848 0v1010h356v-1010h-356zM166 0v758h-152v252h152v207q0 176 96 265t287 89q27 0 64.5 -5t80.5 -14v-272q-24 9 -44.5 13.5t-37.5 4.5q-50 0 -73 -30
t-23 -97v-161h178v-252h-178v-758h-350z" />
    <glyph glyph-name="fl" unicode="&#xf002;" horiz-adv-x="1346" 
d="M848 0v1550h356v-1550h-356zM166 0v758h-152v252h152v207q0 176 96 265t287 89q27 0 64.5 -5t80.5 -14v-272q-24 9 -44.5 13.5t-37.5 4.5q-50 0 -73 -30t-23 -97v-161h178v-252h-178v-758h-350z" />
    <glyph glyph-name="fl" unicode="&#xfb02;" horiz-adv-x="1346" 
d="M848 0v1550h356v-1550h-356zM166 0v758h-152v252h152v207q0 176 96 265t287 89q27 0 64.5 -5t80.5 -14v-272q-24 9 -44.5 13.5t-37.5 4.5q-50 0 -73 -30t-23 -97v-161h178v-252h-178v-758h-350z" />
    <glyph glyph-name="daggerdbl" unicode="&#x2021;" horiz-adv-x="1219" 
d="M442 750h-379v288h379v426h332v-426h381v-288h-381v-447h381v-289h-381v-426h-332v426h-379v289h379v447z" />
    <glyph glyph-name="periodcentered" unicode="&#xb7;" horiz-adv-x="639" 
d="M119 721q0 85 57.5 143t142.5 58q87 0 145 -57.5t58 -143.5q0 -85 -58.5 -144t-144.5 -59q-84 0 -142 59t-58 144z" />
    <glyph glyph-name="quotesinglbase" unicode="&#x201a;" horiz-adv-x="639" 
d="M240 332h372l-309 -627h-276z" />
    <glyph glyph-name="quotedblbase" unicode="&#x201e;" horiz-adv-x="1157" 
d="M240 332h372l-309 -627h-276zM756 332h374l-309 -627h-276z" />
    <glyph glyph-name="perthousand" unicode="&#x2030;" horiz-adv-x="2701" 
d="M426 825q67 0 97 58.5t30 191.5t-30 191.5t-97 58.5t-97 -58.5t-30 -191.5t30 -191.5t97 -58.5zM803 1075q0 -184 -102.5 -293.5t-274.5 -109.5q-173 0 -275 109t-102 294t102 294.5t275 109.5t275 -109.5t102 -294.5zM2292 115q67 0 97 59t30 193q0 133 -30 191t-97 58
t-97 -58t-30 -191q0 -134 30 -193t97 -59zM2669 367q0 -185 -102.5 -295.5t-274.5 -110.5t-273.5 110t-101.5 296q0 185 101 294t274 109t275 -109t102 -294zM1444 115q67 0 97 59t30 193q0 133 -30 191t-97 58t-97 -58t-30 -191q0 -134 30 -193t97 -59zM1819 367
q0 -186 -102 -296t-273 -110q-173 0 -275 110t-102 296q0 185 102 294t275 109q172 0 273.5 -109t101.5 -294zM393 -39l879 1518h188l-885 -1518h-182z" />
    <glyph glyph-name="Acircumflex" unicode="&#xc2;" horiz-adv-x="1479" 
d="M543 547h397l-149 483q-7 22 -19 71t-31 126q-13 -54 -25.5 -103t-25.5 -94zM-16 0l505 1464h500l506 -1464h-397l-74 262h-567l-76 -262h-397zM417 1620l183 350h276l182 -350h-153l-166 180l-168 -180h-154z" />
    <glyph glyph-name="Ecircumflex" unicode="&#xca;" horiz-adv-x="1161" 
d="M156 0v1464h897v-321h-508v-254h479v-314h-479v-247h508v-328h-897zM292 1620l183 350h276l182 -350h-153l-166 180l-168 -180h-154z" />
    <glyph glyph-name="Aacute" unicode="&#xc1;" horiz-adv-x="1479" 
d="M543 547h397l-149 483q-7 22 -19 71t-31 126q-13 -54 -25.5 -103t-25.5 -94zM-16 0l505 1464h500l506 -1464h-397l-74 262h-567l-76 -262h-397zM1028 1970l-309 -350h-154l182 350h281z" />
    <glyph glyph-name="Edieresis" unicode="&#xcb;" horiz-adv-x="1161" 
d="M156 0v1464h897v-321h-508v-254h479v-314h-479v-247h508v-328h-897zM665 1806q0 57 42.5 99.5t101.5 42.5t101 -41.5t42 -100.5q0 -62 -41 -103.5t-102 -41.5t-102.5 42t-41.5 103zM274 1806q0 57 43.5 99.5t101.5 42.5q60 0 101 -41.5t41 -100.5q0 -63 -40 -104
t-102 -41q-60 0 -102.5 42t-42.5 103z" />
    <glyph glyph-name="Egrave" unicode="&#xc8;" horiz-adv-x="1161" 
d="M156 0v1464h897v-321h-508v-254h479v-314h-479v-247h508v-328h-897zM325 1970h281l182 -350h-154z" />
    <glyph glyph-name="Iacute" unicode="&#xcd;" horiz-adv-x="735" 
d="M166 0v1464h403v-1464h-403zM658 1970l-309 -350h-154l182 350h281z" />
    <glyph glyph-name="Icircumflex" unicode="&#xce;" horiz-adv-x="735" 
d="M166 0v1464h403v-1464h-403zM47 1620l183 350h276l182 -350h-153l-166 180l-168 -180h-154z" />
    <glyph glyph-name="Idieresis" unicode="&#xcf;" horiz-adv-x="735" 
d="M166 0v1464h403v-1464h-403zM420 1806q0 57 42.5 99.5t101.5 42.5t101 -41.5t42 -100.5q0 -62 -41 -103.5t-102 -41.5t-102.5 42t-41.5 103zM29 1806q0 57 43.5 99.5t101.5 42.5q60 0 101 -41.5t41 -100.5q0 -63 -40 -104t-102 -41q-60 0 -102.5 42t-42.5 103z" />
    <glyph glyph-name="Igrave" unicode="&#xcc;" horiz-adv-x="735" 
d="M166 0v1464h403v-1464h-403zM80 1970h281l182 -350h-154z" />
    <glyph glyph-name="Oacute" unicode="&#xd3;" horiz-adv-x="1753" 
d="M1659 729q0 -158 -58 -296t-169 -247q-112 -108 -256 -166.5t-299 -58.5q-157 0 -300.5 58.5t-252.5 166.5q-113 109 -171.5 248t-58.5 295q0 157 58.5 295.5t171.5 247.5q109 108 252.5 166.5t300.5 58.5q156 0 300.5 -58.5t254.5 -166.5t168.5 -247t58.5 -296zM877 299
q166 0 274.5 122t108.5 308q0 184 -110 307t-273 123q-166 0 -274.5 -122.5t-108.5 -307.5q0 -188 107 -309t276 -121zM1166 1970l-309 -350h-154l182 350h281z" />
    <glyph glyph-name="Ocircumflex" unicode="&#xd4;" horiz-adv-x="1753" 
d="M1659 729q0 -158 -58 -296t-169 -247q-112 -108 -256 -166.5t-299 -58.5q-157 0 -300.5 58.5t-252.5 166.5q-113 109 -171.5 248t-58.5 295q0 157 58.5 295.5t171.5 247.5q109 108 252.5 166.5t300.5 58.5q156 0 300.5 -58.5t254.5 -166.5t168.5 -247t58.5 -296zM877 299
q166 0 274.5 122t108.5 308q0 184 -110 307t-273 123q-166 0 -274.5 -122.5t-108.5 -307.5q0 -188 107 -309t276 -121zM555 1620l183 350h276l182 -350h-153l-166 180l-168 -180h-154z" />
    <glyph glyph-name="apple" unicode="&#xf000;" horiz-adv-x="1618" 
d="M836 1216q-1 6 -1.5 14t-0.5 23q0 124 95 229.5t236 131.5q1 -10 1.5 -23t0.5 -39q0 -131 -103.5 -234.5t-203.5 -103.5h-8q-3 0 -7.5 1t-8.5 1zM1505 403q-114 -247 -205 -342.5t-204 -95.5q-50 0 -131.5 33t-122.5 33q-45 0 -131 -33t-127 -33q-64 0 -128.5 44
t-129.5 132q-102 140 -157.5 295.5t-55.5 300.5q0 219 125 356.5t323 137.5q68 0 155 -34t124 -34q34 0 121.5 35t152.5 35q110 0 198 -40t161 -124q-102 -65 -151.5 -145.5t-49.5 -182.5q0 -113 60 -200t173 -138z" />
    <glyph glyph-name="Ograve" unicode="&#xd2;" horiz-adv-x="1753" 
d="M1659 729q0 -158 -58 -296t-169 -247q-112 -108 -256 -166.5t-299 -58.5q-157 0 -300.5 58.5t-252.5 166.5q-113 109 -171.5 248t-58.5 295q0 157 58.5 295.5t171.5 247.5q109 108 252.5 166.5t300.5 58.5q156 0 300.5 -58.5t254.5 -166.5t168.5 -247t58.5 -296zM877 299
q166 0 274.5 122t108.5 308q0 184 -110 307t-273 123q-166 0 -274.5 -122.5t-108.5 -307.5q0 -188 107 -309t276 -121zM588 1970h281l182 -350h-154z" />
    <glyph glyph-name="Uacute" unicode="&#xda;" horiz-adv-x="1597" 
d="M147 1464h398v-712q0 -157 8 -225.5t27 -114.5q23 -56 80 -85.5t139 -29.5t138.5 29.5t80.5 85.5q19 46 27 114.5t8 225.5v100v612h397v-774q0 -241 -29 -355.5t-98 -195.5q-75 -89 -206 -133.5t-318 -44.5q-188 0 -318.5 44.5t-206.5 133.5q-68 81 -97.5 195.5
t-29.5 355.5v152v622zM1088 1970l-309 -350h-154l182 350h281z" />
    <glyph glyph-name="Ucircumflex" unicode="&#xdb;" horiz-adv-x="1597" 
d="M147 1464h398v-712q0 -157 8 -225.5t27 -114.5q23 -56 80 -85.5t139 -29.5t138.5 29.5t80.5 85.5q19 46 27 114.5t8 225.5v100v612h397v-774q0 -241 -29 -355.5t-98 -195.5q-75 -89 -206 -133.5t-318 -44.5q-188 0 -318.5 44.5t-206.5 133.5q-68 81 -97.5 195.5
t-29.5 355.5v152v622zM477 1620l183 350h276l182 -350h-153l-166 180l-168 -180h-154z" />
    <glyph glyph-name="Ugrave" unicode="&#xd9;" horiz-adv-x="1597" 
d="M147 1464h398v-712q0 -157 8 -225.5t27 -114.5q23 -56 80 -85.5t139 -29.5t138.5 29.5t80.5 85.5q19 46 27 114.5t8 225.5v100v612h397v-774q0 -241 -29 -355.5t-98 -195.5q-75 -89 -206 -133.5t-318 -44.5q-188 0 -318.5 44.5t-206.5 133.5q-68 81 -97.5 195.5
t-29.5 355.5v152v622zM510 1970h281l182 -350h-154z" />
    <glyph glyph-name="dotlessi" unicode="&#x131;" horiz-adv-x="639" 
d="M141 0v1010h357v-1010h-357z" />
    <glyph glyph-name="circumflex" unicode="&#x2c6;" 
d="M190 1147l183 350h276l182 -350h-153l-166 180l-168 -180h-154z" />
    <glyph glyph-name="tilde" unicode="&#x2dc;" 
d="M844 1468q-30 -129 -83 -189t-136 -60q-23 0 -41.5 2.5t-35.5 7.5l-91 26l-3 1q-52 14 -65 14q-33 0 -54.5 -19.5t-35.5 -62.5h-119q28 128 80.5 189t134.5 61q16 0 38 -4t52 -13l95 -26q12 -5 26 -7t31 -2q32 0 54.5 21t33.5 61h119z" />
    <glyph glyph-name="macron" unicode="&#xaf;" 
d="M205 1247v168h614v-168h-614z" />
    <glyph glyph-name="breve" unicode="&#x2d8;" 
d="M197 1485h131q6 -72 50.5 -105.5t133.5 -33.5t134 34t49 105h130q-12 -159 -87.5 -233t-225.5 -74t-227.5 75.5t-87.5 231.5z" />
    <glyph glyph-name="dotaccent" unicode="&#x2d9;" 
d="M365 1331q0 59 44.5 104.5t102.5 45.5q62 0 106 -44t44 -106q0 -64 -42.5 -106.5t-107.5 -42.5q-60 0 -103.5 44t-43.5 105z" />
    <glyph glyph-name="ring" unicode="&#x2da;" 
d="M397 1399q0 -48 33 -81.5t82 -33.5q48 0 81.5 33.5t33.5 81.5q0 47 -33.5 80.5t-81.5 33.5t-81.5 -33.5t-33.5 -80.5zM242 1399q0 114 78.5 193t191.5 79q114 0 193 -79.5t79 -192.5t-79 -192t-193 -79t-192 78t-78 193z" />
    <glyph glyph-name="cedilla" unicode="&#xb8;" 
d="M272 -440v139q80 -22 149.5 -33.5t121.5 -11.5q43 0 64.5 17.5t21.5 54.5q0 32 -28.5 47.5t-90.5 15.5q-21 0 -33 -0.5t-22 -1.5v213h114v-84h19q111 0 170 -49.5t59 -142.5q0 -100 -66 -154.5t-188 -54.5q-61 0 -134 11t-157 34z" />
    <glyph glyph-name="hungarumlaut" unicode="&#x2dd;" 
d="M569 1147l148 350h248l-277 -350h-119zM393 1497h238l-240 -350h-110z" />
    <glyph glyph-name="ogonek" unicode="&#x2db;" 
d="M633 0q-63 -58 -91 -104.5t-28 -92.5q0 -41 18.5 -60t57.5 -19h102v-191h-74q-156 0 -221 45.5t-65 151.5q0 76 46.5 141t145.5 129h109z" />
    <glyph glyph-name="caron" unicode="&#x2c7;" 
d="M190 1497h154l168 -180l166 180h153l-182 -350h-276z" />
    <glyph glyph-name="Lslash" unicode="&#x141;" horiz-adv-x="1120" 
d="M186 0v500l-125 -86l-135 219l260 180v651h400v-422l198 140l146 -213l-344 -240v-387h495v-342h-895z" />
    <glyph glyph-name="lslash" unicode="&#x142;" horiz-adv-x="688" 
d="M166 0v500l-96 -70l-123 154l219 157v809h356v-589l96 69l121 -153l-217 -160v-717h-356z" />
    <glyph glyph-name="Scaron" unicode="&#x160;" horiz-adv-x="1190" 
d="M221 473q89 -101 175.5 -151t172.5 -50q80 0 131.5 43t51.5 109q0 73 -44.5 112.5t-201.5 81.5q-215 58 -304 151t-89 255q0 210 140.5 342.5t364.5 132.5q121 0 229.5 -32.5t205.5 -98.5l-125 -287q-68 58 -139.5 87.5t-141.5 29.5q-72 0 -117 -34.5t-45 -88.5
q0 -55 39.5 -88t152.5 -63l18 -5q244 -66 321 -145q52 -54 79 -129.5t27 -167.5q0 -233 -153 -374.5t-408 -141.5q-153 0 -278.5 52t-241.5 163zM274 1970h154l168 -180l166 180h153l-182 -350h-276z" />
    <glyph glyph-name="scaron" unicode="&#x161;" horiz-adv-x="991" 
d="M37 84l74 272q78 -68 171.5 -104.5t188.5 -36.5q67 0 102 21.5t35 62.5q0 67 -141 100q-46 11 -74 19q-160 44 -232.5 115.5t-72.5 185.5q0 147 110.5 235t299.5 88q97 0 197.5 -22.5t205.5 -69.5l-74 -245q-71 48 -144 73t-146 25q-61 0 -92 -19t-31 -55q0 -54 140 -91
q32 -9 48 -13q185 -53 257.5 -124.5t72.5 -193.5q0 -155 -119 -250.5t-315 -95.5q-133 0 -247 30.5t-214 92.5zM174 1497h154l168 -180l166 180h153l-182 -350h-276z" />
    <glyph glyph-name="Zcaron" unicode="&#x17d;" horiz-adv-x="1386" 
d="M1298 0h-1294l739 1147h-593v317h1232l-737 -1145h653v-319zM372 1970h154l168 -180l166 180h153l-182 -350h-276z" />
    <glyph glyph-name="zcaron" unicode="&#x17e;" horiz-adv-x="1110" 
d="M1024 0h-1024l518 750h-455v260h1006l-537 -736h492v-274zM233 1497h154l168 -180l166 180h153l-182 -350h-276z" />
    <glyph glyph-name="brokenbar" unicode="&#xa6;" 
d="M393 408h240v-758h-240v758zM393 1432h240v-758h-240v758z" />
    <glyph glyph-name="Eth" unicode="&#xd0;" horiz-adv-x="1591" 
d="M178 0v614h-178v258h178v592h303q343 0 484.5 -32t248.5 -107q139 -97 211 -248.5t72 -345.5t-72 -345.5t-211 -248.5q-106 -74 -242.5 -105.5t-422.5 -31.5h-68h-303zM571 328h70q235 0 343 96.5t108 306.5t-108.5 308t-342.5 98h-70v-265h273v-258h-273v-286z" />
    <glyph glyph-name="eth" unicode="&#xf0;" horiz-adv-x="1276" 
d="M848 473q0 100 -57 158.5t-154 58.5q-98 0 -154.5 -58.5t-56.5 -158.5q0 -99 56.5 -157t154.5 -58q97 0 154 58.5t57 156.5zM815 899q-44 73 -98 136.5t-121 117.5l-297 -137l-70 127l242 106q-61 36 -97 56t-65 34l119 209q70 -30 147 -74t166 -104l314 146l71 -130
l-262 -118q171 -160 254.5 -338t83.5 -381q0 -278 -149 -433t-416 -155q-117 0 -218 37.5t-181 110.5q-81 72 -122.5 163t-41.5 193q0 106 41 199t123 167q70 66 161 101t193 35q61 0 116 -17t107 -51z" />
    <glyph glyph-name="Yacute" unicode="&#xdd;" horiz-adv-x="1223" 
d="M416 0v668l-512 796h458l197 -377q2 -3 6 -11q31 -59 43 -113q10 49 43 109q6 11 8 15l195 377h459l-512 -796v-668h-385zM901 1970l-309 -350h-154l182 350h281z" />
    <glyph glyph-name="yacute" unicode="&#xfd;" horiz-adv-x="1090" 
d="M76 -446l284 600l-407 856h395l141 -365q18 -46 30 -85.5t18 -73.5q6 36 17.5 74.5t29.5 84.5l143 365h381l-635 -1456h-397zM834 1497l-309 -350h-154l182 350h281z" />
    <glyph glyph-name="Thorn" unicode="&#xde;" horiz-adv-x="1298" 
d="M530 582h76q144 0 201 39t57 133q0 92 -55 131t-199 39h-80v-342zM530 260v-260h-374v1464h374v-223h43q244 0 343 -24t169 -82q81 -67 123.5 -168t42.5 -226q0 -133 -41.5 -231.5t-124.5 -161.5q-61 -47 -143.5 -67.5t-253.5 -20.5h-86h-72z" />
    <glyph glyph-name="thorn" unicode="&#xfe;" horiz-adv-x="1352" 
d="M449 502q0 -118 61.5 -186t169.5 -68t170.5 68t62.5 186t-62 186t-171 68q-108 0 -169.5 -68t-61.5 -186zM463 163q5 -33 7.5 -76t2.5 -103v-430h-340v1996h340v-540q0 -60 -3 -99t-9 -71q70 104 153 153t189 49q213 0 339 -145.5t126 -394.5q0 -242 -125.5 -391.5
t-327.5 -149.5q-128 0 -208.5 47t-143.5 155z" />
    <glyph glyph-name="minus" unicode="&#x2212;" horiz-adv-x="1706" 
d="M254 729h1198v-235h-1198v235z" />
    <glyph glyph-name="multiply" unicode="&#xd7;" horiz-adv-x="1706" 
d="M430 1214l440 -440l441 440l162 -161l-441 -443l441 -440l-162 -162l-441 441l-440 -441l-162 162l441 440l-441 443z" />
    <glyph glyph-name="onesuperior" unicode="&#xb9;" horiz-adv-x="846" 
d="M324 575v672h-207l112 199h334v-871h-239z" />
    <glyph glyph-name="twosuperior" unicode="&#xb2;" horiz-adv-x="846" 
d="M764 575h-737l432 467q40 44 59 78t19 64q0 47 -32 75.5t-85 28.5q-62 0 -94.5 -36t-32.5 -103v-12h-234v6q0 149 96.5 235t262.5 86q162 0 259 -76t97 -202q0 -61 -30 -119.5t-101 -130.5l-176 -174h297v-187z" />
    <glyph glyph-name="threesuperior" unicode="&#xb3;" horiz-adv-x="846" 
d="M55 866h246v-14q0 -58 29.5 -87.5t87.5 -29.5q61 0 93 28.5t32 82.5q0 61 -35 90t-109 29q-11 0 -17 -0.5t-11 -1.5v141h12q67 0 103 26.5t36 75.5q0 41 -29.5 66.5t-76.5 25.5q-51 0 -79 -24.5t-30 -69.5h-233q3 123 95.5 190.5t258.5 67.5q147 0 232 -60.5t85 -164.5
q0 -67 -39.5 -113.5t-113.5 -66.5q90 -16 140 -73t50 -144q0 -129 -99.5 -208t-260.5 -79q-169 0 -268 82t-99 223v8z" />
    <glyph glyph-name="onequarter" unicode="&#xbc;" horiz-adv-x="1956" 
d="M1604 346v238q0 43 1 60.5t4 30.5q-11 -23 -26.5 -47.5t-36.5 -52.5l-168 -229h226zM1604 0v184h-420v162l344 469h284v-469h103v-162h-103v-184h-208zM465 -39l835 1518h189l-840 -1518h-184zM309 633v627h-196l108 184h318v-811h-230z" />
    <glyph glyph-name="onehalf" unicode="&#xbd;" horiz-adv-x="1956" 
d="M1878 0h-704l413 436q37 39 55.5 71.5t18.5 59.5q0 44 -30.5 71.5t-80.5 27.5q-58 0 -90.5 -34.5t-32.5 -96.5v-11h-221v6q0 139 91.5 219t250.5 80q155 0 246.5 -70.5t91.5 -189.5q0 -59 -29.5 -113.5t-95.5 -117.5l-166 -164h283v-174zM465 -39l835 1518h189
l-840 -1518h-184zM309 633v627h-196l108 184h318v-811h-230z" />
    <glyph glyph-name="threequarters" unicode="&#xbe;" horiz-adv-x="1956" 
d="M1604 346v238q0 43 1 60.5t4 30.5q-11 -23 -26.5 -47.5t-36.5 -52.5l-168 -229h226zM1604 0v184h-420v162l344 469h284v-469h103v-162h-103v-184h-208zM465 -39l835 1518h189l-840 -1518h-184zM53 905h234v-14q0 -54 28.5 -81.5t83.5 -27.5q57 0 88 27t31 76
q0 57 -32.5 83.5t-104.5 26.5q-10 0 -16 -0.5t-11 -0.5v132h13q63 0 97 25t34 72q0 36 -29 60t-74 24q-47 0 -73.5 -23.5t-26.5 -64.5h-223q3 116 90 178.5t246 62.5q140 0 221.5 -56.5t81.5 -154.5q0 -62 -37 -105t-109 -63q87 -13 135 -66t48 -136q0 -119 -96 -194
t-249 -75q-161 0 -255.5 77.5t-94.5 209.5v8z" />
    <glyph glyph-name="franc" unicode="&#x20a3;" horiz-adv-x="2030" 
d="M156 0v1464h897v-321h-508v-254h479v-314h-479v-575h-389zM1247 0v1010h336v-238q52 130 142 195t218 65q21 0 42.5 -1.5t43.5 -4.5l-34 -324q-32 11 -63 16t-60 5q-130 0 -200.5 -79.5t-70.5 -225.5v-418h-354z" />
    <glyph glyph-name="Gbreve" unicode="&#x11e;" horiz-adv-x="1726" 
d="M852 539v307h784q1 -15 1.5 -33t0.5 -53q0 -378 -199.5 -586.5t-561.5 -208.5q-178 0 -316.5 53.5t-247.5 163.5q-104 105 -161.5 248.5t-57.5 300.5q0 164 56 301.5t167 247.5q110 107 252.5 162t307.5 55q215 0 380.5 -85t278.5 -253l-346 -166q-62 85 -139.5 126.5
t-173.5 41.5q-179 0 -282 -119.5t-103 -326.5q0 -209 103 -329t282 -120q152 0 253.5 74.5t118.5 198.5h-397zM549 1958h131q6 -72 50.5 -105.5t133.5 -33.5t134 34t49 105h130q-12 -159 -87.5 -233t-225.5 -74t-227.5 75.5t-87.5 231.5z" />
    <glyph glyph-name="gbreve" unicode="&#x11f;" horiz-adv-x="1352" 
d="M901 508q0 117 -62.5 183.5t-172.5 66.5q-111 0 -174.5 -66.5t-63.5 -183.5q0 -116 63.5 -183t174.5 -67q109 0 172 67t63 183zM1214 1010v-1008q0 -229 -139.5 -338.5t-431.5 -109.5q-236 0 -370 87.5t-142 247.5h369q8 -47 52.5 -73.5t117.5 -26.5q115 0 158.5 55.5
t43.5 233.5v92q-56 -95 -143 -141.5t-207 -46.5q-200 0 -321 144.5t-121 385.5q0 243 126.5 386.5t340.5 143.5q113 0 195.5 -47t142.5 -147v162h329zM361 1485h131q6 -72 50.5 -105.5t133.5 -33.5t134 34t49 105h130q-12 -159 -87.5 -233t-225.5 -74t-227.5 75.5
t-87.5 231.5z" />
    <glyph glyph-name="Idotaccent" unicode="&#x130;" horiz-adv-x="735" 
d="M166 0v1464h403v-1464h-403zM222 1804q0 59 44.5 104.5t102.5 45.5q62 0 106 -44t44 -106q0 -64 -42.5 -106.5t-107.5 -42.5q-60 0 -103.5 44t-43.5 105z" />
    <glyph glyph-name="Scedilla" unicode="&#x15e;" horiz-adv-x="1190" 
d="M221 473q89 -101 175.5 -151t172.5 -50q80 0 131.5 43t51.5 109q0 73 -44.5 112.5t-201.5 81.5q-215 58 -304 151t-89 255q0 210 140.5 342.5t364.5 132.5q121 0 229.5 -32.5t205.5 -98.5l-125 -287q-68 58 -139.5 87.5t-141.5 29.5q-72 0 -117 -34.5t-45 -88.5
q0 -55 39.5 -88t152.5 -63l18 -5q244 -66 321 -145q52 -54 79 -129.5t27 -167.5q0 -233 -153 -374.5t-408 -141.5q-153 0 -278.5 52t-241.5 163zM356 -440v139q80 -22 149.5 -33.5t121.5 -11.5q43 0 64.5 17.5t21.5 54.5q0 32 -28.5 47.5t-90.5 15.5q-21 0 -33 -0.5
t-22 -1.5v213h114v-84h19q111 0 170 -49.5t59 -142.5q0 -100 -66 -154.5t-188 -54.5q-61 0 -134 11t-157 34z" />
    <glyph glyph-name="scedilla" unicode="&#x15f;" horiz-adv-x="991" 
d="M37 84l74 272q78 -68 171.5 -104.5t188.5 -36.5q67 0 102 21.5t35 62.5q0 67 -141 100q-46 11 -74 19q-160 44 -232.5 115.5t-72.5 185.5q0 147 110.5 235t299.5 88q97 0 197.5 -22.5t205.5 -69.5l-74 -245q-71 48 -144 73t-146 25q-61 0 -92 -19t-31 -55q0 -54 140 -91
q32 -9 48 -13q185 -53 257.5 -124.5t72.5 -193.5q0 -155 -119 -250.5t-315 -95.5q-133 0 -247 30.5t-214 92.5zM256 -440v139q80 -22 149.5 -33.5t121.5 -11.5q43 0 64.5 17.5t21.5 54.5q0 32 -28.5 47.5t-90.5 15.5q-21 0 -33 -0.5t-22 -1.5v213h114v-84h19
q111 0 170 -49.5t59 -142.5q0 -100 -66 -154.5t-188 -54.5q-61 0 -134 11t-157 34z" />
    <glyph glyph-name="Cacute" unicode="&#x106;" horiz-adv-x="1286" 
d="M1217 1407v-436q-82 91 -163.5 133.5t-174.5 42.5q-172 0 -278.5 -117.5t-106.5 -306.5q0 -176 108.5 -292t276.5 -116q93 0 174.5 42.5t163.5 134.5v-437q-95 -46 -189 -69t-190 -23q-120 0 -221.5 28.5t-186.5 86.5q-164 110 -250 277t-86 376q0 168 54.5 305.5
t164.5 249.5q104 107 234.5 160t290.5 53q96 0 190 -23t189 -69zM1094 1970l-309 -350h-154l182 350h281z" />
    <glyph glyph-name="cacute" unicode="&#x107;" horiz-adv-x="944" 
d="M856 678q-52 46 -100 67t-101 21q-106 0 -168.5 -70t-62.5 -190q0 -116 65 -185t175 -69q54 0 101.5 21.5t90.5 66.5v-309q-64 -36 -128 -53t-132 -17q-233 0 -377.5 149.5t-144.5 393.5q0 237 147.5 387.5t378.5 150.5q77 0 139 -15t117 -48v-301zM852 1497l-309 -350
h-154l182 350h281z" />
    <glyph glyph-name="Ccaron" unicode="&#x10c;" horiz-adv-x="1286" 
d="M1217 1407v-436q-82 91 -163.5 133.5t-174.5 42.5q-172 0 -278.5 -117.5t-106.5 -306.5q0 -176 108.5 -292t276.5 -116q93 0 174.5 42.5t163.5 134.5v-437q-95 -46 -189 -69t-190 -23q-120 0 -221.5 28.5t-186.5 86.5q-164 110 -250 277t-86 376q0 168 54.5 305.5
t164.5 249.5q104 107 234.5 160t290.5 53q96 0 190 -23t189 -69zM483 1970h154l168 -180l166 180h153l-182 -350h-276z" />
    <glyph glyph-name="ccaron" unicode="&#x10d;" horiz-adv-x="944" 
d="M856 678q-52 46 -100 67t-101 21q-106 0 -168.5 -70t-62.5 -190q0 -116 65 -185t175 -69q54 0 101.5 21.5t90.5 66.5v-309q-64 -36 -128 -53t-132 -17q-233 0 -377.5 149.5t-144.5 393.5q0 237 147.5 387.5t378.5 150.5q77 0 139 -15t117 -48v-301zM241 1497h154
l168 -180l166 180h153l-182 -350h-276z" />
    <glyph glyph-name="dcroat" unicode="&#x111;" horiz-adv-x="1372" 
d="M903 492q0 111 -62.5 176t-170.5 65t-170 -64.5t-62 -176.5q0 -114 61.5 -178t170.5 -64t171 64.5t62 177.5zM1219 1550v-180h153v-205h-153v-1165h-328v164q-68 -102 -153 -152.5t-189 -50.5q-208 0 -336.5 145t-128.5 379q0 235 126.5 383t326.5 148q122 0 201 -43
t151 -146q-6 42 -9 85t-3 94v159h-332v205h332v180h342z" />
    <glyph glyph-name="sfthyphen" unicode="&#xad;" horiz-adv-x="934" 
d="M127 340v326h680v-326h-680z" />
    <glyph glyph-name="periodcentered" unicode="&#x2219;" horiz-adv-x="639" 
d="M119 721q0 85 57.5 143t142.5 58q87 0 145 -57.5t58 -143.5q0 -85 -58.5 -144t-144.5 -59q-84 0 -142 59t-58 144z" />
    <glyph glyph-name="Euro" horiz-adv-x="1280" 
d="M1225 406l-13 -351q-83 -46 -172 -70t-178 -24q-273 0 -456.5 153.5t-231.5 422.5h-174l27 122l131 1q-1 11 -1.5 25t-0.5 40q0 11 2 43q1 15 2 25h-160l27 125h147q55 263 238.5 412t453.5 149q94 0 183.5 -27t167.5 -78v-346q-72 71 -152.5 107t-169.5 36
q-123 0 -211 -66.5t-125 -186.5h498l-43 -125h-477q-3 -24 -5 -44.5t-2 -33.5q0 -15 0.5 -28t1.5 -27l439 -1l-45 -122h-375q29 -124 121.5 -195.5t222.5 -71.5q80 0 159 32.5t171 103.5z" />
    <glyph glyph-name="Euro" unicode="&#x20ac;" horiz-adv-x="1280" 
d="M1225 406l-13 -351q-83 -46 -172 -70t-178 -24q-273 0 -456.5 153.5t-231.5 422.5h-174l27 122l131 1q-1 11 -1.5 25t-0.5 40q0 11 2 43q1 15 2 25h-160l27 125h147q55 263 238.5 412t453.5 149q94 0 183.5 -27t167.5 -78v-346q-72 71 -152.5 107t-169.5 36
q-123 0 -211 -66.5t-125 -186.5h498l-43 -125h-477q-3 -24 -5 -44.5t-2 -33.5q0 -15 0.5 -28t1.5 -27l439 -1l-45 -122h-375q29 -124 121.5 -195.5t222.5 -71.5q80 0 159 32.5t171 103.5z" />
    </font>
</defs>
</svg>
